//


Alvin a Chipmunkové 3 / Alvin and the Chipmunks 3 (2011)

Nefunkčné linky, staré nevhodné a zabudnuté témy (presunuté za obdobie 2011-2014)
Obrázok užívateľa
COLLY
ourphorum MAFIA
ourphorum MAFIA
 
Príspevky: 3755
Registrovaný: Pia Máj 27, 2011 8:19 am
Has thanked: 4 times
Been thanked: 260 times

Alvin a Chipmunkové 3 / Alvin and the Chipmunks 3 (2011)

Poslaťod COLLY » Sob Jan 07, 2012 6:32 pm

Obrázok
Alvin a Chipmunkové 3 / Alvin and the Chipmunks 3 (2011)
Release: Alvin.a.Chipmunkove.3.2011.CAMRip.CZ


Obrázok
Obrázok

Obrázok
Odkaz na stiahnutie:
Pre zobrazenie odkazov sa musíte alebo


Obrázok
Odkaz na stiahnutie:
Pre zobrazenie odkazov sa musíte alebo


Obrázok
Obrázok
Odkaz na stiahnutie:
Pre zobrazenie odkazov sa musíte alebo

Obrázok
Odkaz na stiahnutie:
Pre zobrazenie odkazov sa musíte alebo

Obrázok
Odkaz na stiahnutie:
Pre zobrazenie odkazov sa musíte alebo

Obrázok
Odkaz na stiahnutie:
Pre zobrazenie odkazov sa musíte alebo

Obrázok
Odkaz na stiahnutie:
Pre zobrazenie odkazov sa musíte alebo

Obrázok
Odkaz na stiahnutie:
Pre zobrazenie odkazov sa musíte alebo

Obrázok
Odkaz na stiahnutie:
Pre zobrazenie odkazov sa musíte alebo

Obrázok
Odkaz na stiahnutie:
Pre zobrazenie odkazov sa musíte alebo



Obrázok

_________________________________
VIEM ZOHNAŤ VŠETKO, PÍŠTE
VŠETKO JE MOJ UPLOAD / MY UPLOAD
NA SHARE-RAPID NEUPUJEM!
LINKY SÚ KOMBINOVATEĽNÉ
RAR BEZ HESLA / NO PASS
ŽIADOSŤ O REUPLOAD -> PROSÍM PM/SS

Za PowerUploaders pre Vás nahral Colly !!
Obrázok

Anonymous_26032013
 

Poslaťod Anonymous_26032013 » Sob Jan 07, 2012 9:34 pm

Alvin.a.Chipmunkove.3.2011.CAMRip. CZ ZVUK
CSFD
Odkaz na stiahnutie:
Pre zobrazenie odkazov sa musíte alebo

Obrázok
Odkaz na stiahnutie:
Pre zobrazenie odkazov sa musíte alebo

Obrázok
Odkaz na stiahnutie:
Pre zobrazenie odkazov sa musíte alebo

lapepa
Gold User
Gold User
 
Príspevky: 1823
Registrovaný: Str Sep 01, 2010 10:44 am
Has thanked: 1 time
Been thanked: 134 times

Poslaťod lapepa » Sob Jan 07, 2012 10:01 pm

Alvin a Chipmunkové 3 / Alvin and the Chipmunks 3 (2011)
Alvin.a.Chipmunkove.3.2011.CAMRip.CZ

Obrázok

Obrázok
Odkaz na stiahnutie:
Pre zobrazenie odkazov sa musíte alebo



Obrázok
GENERAL CAMRip.CZ
Format : AVI
Format/Info : Audio Video Interleave
File size : 988 MiB
Duration : 1h 18mn
Overall bit rate : 1 754 Kbps
Writing application : VirtualDubMod 1.5.10.2 (build 2540/release)
Writing library : VirtualDubMod build 2540/release

Video
ID : 0
Format : MPEG-4 Visual
Format profile : Advanced Simple@L5
Format settings, BVOP : 2
Format settings, QPel : No
Format settings, GMC : No warppoints
Format settings, Matrix : Default (H.263)
Muxing mode : Packed bitstream
Codec ID : XVID
Codec ID/Hint : XviD
Duration : 1h 18mn
Bit rate : 1 614 Kbps
Width : 680 pixels
Height : 368 pixels
Display aspect ratio : 16:9
Frame rate : 29.970 fps
Color space : YUV
Chroma subsampling : 4:2:0
Bit depth : 8 bits
Scan type : Progressive
Compression mode : Lossy
Bits/(Pixel*Frame) : 0.215
Stream size : 909 MiB (92%)
Writing library : XviD 64

Audio
ID : 1
Format : MPEG Audio
Format version : Version 1
Format profile : Layer 3
Mode : Joint stereo
Mode extension : MS Stereo
Codec ID : 55
Codec ID/Hint : MP3
Duration : 1h 18mn
Bit rate mode : Constant
Bit rate : 128 Kbps
Channel(s) : 2 channels
Sampling rate : 44.1 KHz
Compression mode : Lossy
Stream size : 72.1 MiB (7%)
Alignment : Split accross interleaves
Interleave, duration : 33 ms (1.00 video frame)
Interleave, preload duration : 500 ms




Obrázok
Odkaz na stiahnutie:
Pre zobrazenie odkazov sa musíte alebo



Obrázok
Odkaz na stiahnutie:
Pre zobrazenie odkazov sa musíte alebo



Obrázok
Odkaz na stiahnutie:
Pre zobrazenie odkazov sa musíte alebo


Obrázok
Odkaz na stiahnutie:
Pre zobrazenie odkazov sa musíte alebo

justinlee_2010
Power User
Power User
 
Príspevky: 690
Registrovaný: Str Apr 13, 2011 1:13 am
Has thanked: 2 times
Been thanked: 43 times

Poslaťod justinlee_2010 » Sob Jan 07, 2012 10:23 pm

Alvin_a_Chipmunkové 3 / Alvin_and_the_Chipmunks 3_2011_KinoRip-CZ

Obrázok

Obrázok
Odkaz na stiahnutie:
Pre zobrazenie odkazov sa musíte alebo

Animovaný / Komedie / Rodinný / Hudební
USA, 2011
Režie:
Mike Mitchell
Hudba:
Mark Mothersbaugh
Hrají:
Jason Lee, Matthew Gray Gubler, Amy Poehler, Jesse McCartney, Anna Faris, Christina Applegate, Alyssa Milano, Justin Long, Luisa D´Oliveira, David Cross, Jenny Slate

Tentokrát si naši staří známí vyrážejí užít prázdniny na luxusní výletní loď, kterou svým dováděním během chvíle obrátí naruby. Chimpunkové a Chipettky páchají na parníku, který se stal dočasně jejich hracím hřištěm, jednu lumpárnu za druhou a zpestřují tak prázdniny nejen sobě, ale i všem ostatním pasažérům. Veškerá legrace ale končí ve chvíli, kdy ztroskotají na opuštěném ostrově, ze kterého, jak se zdá, není úniku. Brzy se ale ukáže, že ostrov není tak opuštěný, jak to na první pohled vypadalo. Alvin a jeho přátelé potkávají nového kamaráda, se kterým se vydávají na dobrodružné putování po ostrově, na jehož konci je čeká velké překvapení.

Obrázok
RLS:Alvin.a.Chipmunkove.3.2011.CAMRip.CZ
Format : AVI
Format/Info : Audio Video Interleave
File size : 988 MiB
Duration : 1h 18mn
Overall bit rate : 1 754 Kbps
Writing application : VirtualDubMod 1.5.10.2 (build 2540/release)
Writing library : VirtualDubMod build 2540/release

Video
ID : 0
Format : MPEG-4 Visual
Format profile : Advanced Simple@L5
Format settings, BVOP : 2
Format settings, QPel : No
Format settings, GMC : No warppoints
Format settings, Matrix : Default (H.263)
Muxing mode : Packed bitstream
Codec ID : XVID
Codec ID/Hint : XviD
Duration : 1h 18mn
Bit rate : 1 614 Kbps
Width : 680 pixels
Height : 368 pixels
Display aspect ratio : 16:9
Frame rate : 29.970 fps
Color space : YUV
Chroma subsampling : 4:2:0
Bit depth : 8 bits
Scan type : Progressive
Compression mode : Lossy
Bits/(Pixel*Frame) : 0.215
Stream size : 909 MiB (92%)
Writing library : XviD 64

Audio
ID : 1
Format : MPEG Audio
Format version : Version 1
Format profile : Layer 3
Mode : Joint stereo
Mode extension : MS Stereo
Codec ID : 55
Codec ID/Hint : MP3
Duration : 1h 18mn
Bit rate mode : Constant
Bit rate : 128 Kbps
Channel(s) : 2 channels
Sampling rate : 44.1 KHz
Compression mode : Lossy
Stream size : 72.1 MiB (7%)
Alignment : Split accross interleaves
Interleave, duration : 33 ms (1.00 video frame)
Interleave, preload duration : 500 ms


Obrázok

Obrázok
Odkaz na stiahnutie:
Pre zobrazenie odkazov sa musíte alebo


Obrázok

Obrázok
Odkaz na stiahnutie:
Pre zobrazenie odkazov sa musíte alebo


Obrázok

Obrázok

Odkaz na stiahnutie:
Pre zobrazenie odkazov sa musíte alebo



Obrázok

fiusion552
Power User
Power User
 
Príspevky: 536
Registrovaný: Sob Dec 10, 2011 3:43 pm
Has thanked: 0 time
Been thanked: 57 times

Poslaťod fiusion552 » Sob Jan 07, 2012 10:37 pm

Alvin.a.Chipmunkove.3.2011.CAMRip.CZ
Alvin a Chipmunkové 3 / Alvin and the Chipmunks 3 (2011)

Obrázok

Obrázok
Odkaz na stiahnutie:
Pre zobrazenie odkazov sa musíte alebo

Odkaz na stiahnutie:
Pre zobrazenie odkazov sa musíte alebo

Obrázok
Obrázok
Odkaz na stiahnutie:
Pre zobrazenie odkazov sa musíte alebo

Obrázok
Odkaz na stiahnutie:
Pre zobrazenie odkazov sa musíte alebo

Obrázok
Odkaz na stiahnutie:
Pre zobrazenie odkazov sa musíte alebo

Obrázok
Odkaz na stiahnutie:
Pre zobrazenie odkazov sa musíte alebo

Obrázok

Obrázok užívateľa
shelbygt
ourphorum ELITA
ourphorum ELITA
 
Príspevky: 2349
Registrovaný: Štv Mar 12, 2009 7:32 pm
Has thanked: 12 times
Been thanked: 316 times

Poslaťod shelbygt » Ned Jan 08, 2012 7:50 am

Alvin a Chipmunkové 3 / Alvin and the Chipmunks 3 (2011)
Rel:Alvin.a.Chipmunkove.3.2011.CAMRip.CZ

Obrázok
Jazyk:CZ
Animovaný / Komedie / Rodinný / Hudební
USA, 2011, 87 min
Režie:Mike Mitchell
Hudba:Mark Mothersbaugh
Hrají:Jason Lee, Matthew Gray Gubler, Amy Poehler, Jesse McCartney, Anna Faris, Christina Applegate, Alyssa Milano, Justin Long, Luisa D´Oliveira, David Cross, Jenny Slate
Odkaz
Odkaz na stiahnutie:
Pre zobrazenie odkazov sa musíte alebo

Obsah
Tentokrát si naši staří známí vyrážejí užít prázdniny na luxusní výletní loď, kterou svým dováděním během chvíle obrátí naruby. Chimpunkové a Chipettky páchají na parníku, který se stal dočasně jejich hracím hřištěm, jednu lumpárnu za druhou a zpestřují tak prázdniny nejen sobě, ale i všem ostatním pasažérům. Veškerá legrace ale končí ve chvíli, kdy ztroskotají na opuštěném ostrově, ze kterého, jak se zdá, není úniku. Brzy se ale ukáže, že ostrov není tak opuštěný, jak to na první pohled vypadalo. Alvin a jeho přátelé potkávají nového kamaráda, se kterým…
INFO
General / Container Stream #1
File Format.......................................AVI
Play Time.........................................1h 18mn
Total File Size...................................988 MiB
Video Stream #1
Frame Width.......................................680 pixels
Frame Height......................................368 pixels
Frame Rate........................................29.970 fps
Display Aspect Ratio..............................16:9
Audio Stream #1
Codec.............................................MPEG Audio
Audio Stream BitRate..............................128 Kbps
Number of Audio Channels..........................2

Hellshare
Odkaz na stiahnutie:
Pre zobrazenie odkazov sa musíte alebo

Share-Rapid
Odkaz na stiahnutie:
Pre zobrazenie odkazov sa musíte alebo

Euroshare
Odkaz na stiahnutie:
Pre zobrazenie odkazov sa musíte alebo

No Pass

falopes
Gold User
Gold User
 
Príspevky: 1347
Registrovaný: Pia Feb 13, 2009 1:58 pm
Has thanked: 22 times
Been thanked: 412 times

Poslaťod falopes » Ned Jan 08, 2012 1:26 pm

Alvin a Chipmunkové 3 / Alvin and the Chipmunks 3 (2011) CAMRipCz

Obrázok

Csfd:44%
Odkaz na stiahnutie:
Pre zobrazenie odkazov sa musíte alebo


Obsah
Tentokrát si naši staří známí vyrážejí užít prázdniny na luxusní výletní loď, kterou svým dováděním během chvíle obrátí naruby. Chimpunkové a Chipettky páchají na parníku, který se stal dočasně jejich hracím hřištěm, jednu lumpárnu za druhou a zpestřují tak prázdniny nejen sobě, ale i všem ostatním pasažérům. Veškerá legrace ale končí ve chvíli, kdy ztroskotají na opuštěném ostrově, ze kterého, jak se zdá, není úniku. Brzy se ale ukáže, že ostrov není tak opuštěný, jak to na první pohled vypadalo. Alvin a jeho přátelé potkávají nového kamaráda, se kterým se vydávají na dobrodružné putování po ostrově, na jehož konci je čeká velké překvapení.

Info
File Name : Alvin.a.ChipmunkoveFP.avi
File Size : 988 Mb.

[Movie]
Valid : Yes [AVI]
Duration : 01:18:43
Movie complete : Yes

[Video]
Resolution : 680x368
Codec : XviD MPEG-4 codec
FPS : 29.97
BitRate : 1626 Kbps
Quality Factor : 0.22 b/px

[Audio]
Codec : MPEG 1 or 2 Audio Layer 3 (MP3)
Number of channels : 2
Sample Rate : 44100 Hz
BitRate : 128 Kbps

Jazyk:Cz

Screens

Obrázok


Download:

Obrázok
Odkaz na stiahnutie:
Pre zobrazenie odkazov sa musíte alebo


Bez hesla

wojto7
Prispievateľ
Prispievateľ
 
Príspevky: 160
Registrovaný: Pon Jan 24, 2011 5:33 pm
Has thanked: 3 times
Been thanked: 12 times

Poslaťod wojto7 » Ned Jan 08, 2012 6:21 pm

Obrázok

Alvin a Chipmunkové 3 / Alvin and the Chipmunks 3 (2011) CZ
Alvin.a.Chipmunkove.3.2011.CAMRip.CZ

Obrázok

Obrázok

Obrázok

Odkaz na stiahnutie:
Pre zobrazenie odkazov sa musíte alebo


Obrázok

USA, 2011
Režie:Mike Mitchell
Hudba:Mark Mothersbaugh
Hrají:
Jason Lee, Matthew Gray Gubler, Amy Poehler, Jesse McCartney, Anna Faris, Christina Applegate, Alyssa Milano, Justin Long, Luisa D´Oliveira, David Cross, Jenny Slate

Tentokrát si naši staří známí vyrážejí užít prázdniny na luxusní výletní loď, kterou svým dováděním během chvíle obrátí naruby. Chimpunkové a Chipettky páchají na parníku, který se stal dočasně jejich hracím hřištěm, jednu lumpárnu za druhou a zpestřují tak prázdniny nejen sobě, ale i všem ostatním pasažérům. Veškerá legrace ale končí ve chvíli, kdy ztroskotají na opuštěném ostrově, ze kterého, jak se zdá, není úniku. Brzy se ale ukáže, že ostrov není tak opuštěný, jak to na první pohled vypadalo. Alvin a jeho přátelé potkávají nového kamaráda, se kterým se vydávají na dobrodružné putování po ostrově, na jehož konci je čeká velké překvapení.

Trvanie : 01:18:43
Video:
Rozlíšenie : 680x368
Kodek : XviD MPEG-4 codec
FPS : 29.97
BitRate : 1626 Kbps
Quality Factor : 0.22 b/px
Audio:
Kodek : MPEG 1 or 2 Audio Layer 3 (MP3)
Počet kanálov : 2
Sample Rate : 44100 Hz
BitRate : 128 Kbps


Obrázok

Obrázok
Odkaz na stiahnutie:
Pre zobrazenie odkazov sa musíte alebo

Daskovil
Top Prispievateľ
Top Prispievateľ
 
Príspevky: 344
Registrovaný: Sob Feb 13, 2010 7:00 pm
Has thanked: 0 time
Been thanked: 48 times

Poslaťod Daskovil » Ned Jan 08, 2012 9:44 pm

Alvin a Chipmunkové 3 / Alvin and the Chipmunks 3 (2011)

Obrázok

InFo:

Animovaný / Komedie / Rodinný / Hudební

USA, 2011, 87 min
Režie:
Mike Mitchell
Hudba:
Mark Mothersbaugh
Hrají:
Jason Lee, Matthew Gray Gubler, Amy Poehler, Jesse McCartney, Anna Faris, Christina Applegate, Alyssa Milano, Justin Long, Luisa D´Oliveira, David Cross, Jenny Slate

Obsah:

Tentokrát si naši staří známí vyrážejí užít prázdniny na luxusní výletní loď, kterou svým dováděním během chvíle obrátí naruby. Chimpunkové a Chipettky páchají na parníku, který se stal dočasně jejich hracím hřištěm, jednu lumpárnu za druhou a zpestřují tak prázdniny nejen sobě, ale i všem ostatním pasažérům. Veškerá legrace ale končí ve chvíli, kdy ztroskotají na opuštěném ostrově, ze kterého, jak se zdá, není úniku. Brzy se ale ukáže, že ostrov není tak opuštěný, jak to na první pohled vypadalo. Alvin a jeho přátelé potkávají nového kamaráda, se kterým se vydávají na dobrodružné putování po ostrově, na jehož konci je čeká velké překvapení.

Kvalita:

Odkaz na stiahnutie:
Pre zobrazenie odkazov sa musíte alebo


CSFD:

Odkaz na stiahnutie:
Pre zobrazenie odkazov sa musíte alebo


DownLoad:
Alvin.a.Chipmunkove.3.2011.CAMRip.CZ

#1:
Odkaz na stiahnutie:
Pre zobrazenie odkazov sa musíte alebo


#2:
Odkaz na stiahnutie:
Pre zobrazenie odkazov sa musíte alebo


#3:
Odkaz na stiahnutie:
Pre zobrazenie odkazov sa musíte alebo


#4:
Odkaz na stiahnutie:
Pre zobrazenie odkazov sa musíte alebo


#5:
Odkaz na stiahnutie:
Pre zobrazenie odkazov sa musíte alebo


#6:
Odkaz na stiahnutie:
Pre zobrazenie odkazov sa musíte alebo


Pass:
Odkaz na stiahnutie:
Pre zobrazenie odkazov sa musíte alebo

Obrázok užívateľa
Robinko
Excellent User
Excellent User
 
Príspevky: 1151
Registrovaný: Ned Mar 02, 2008 8:13 pm
Bydlisko: Bratislava
Has thanked: 29 times
Been thanked: 112 times

Poslaťod Robinko » Ned Jan 08, 2012 10:04 pm

Alvin a Chipmunkovia 3 / Alvin and the Chipmunks 3 (2011)

Obrázok


Obrázok
Odkaz na stiahnutie:
Pre zobrazenie odkazov sa musíte alebo



Obrázok
Animovaný, rodinný, komédia, hudobný
USA, 2011, 87 min
CZ dabing, CamRip

Format : AVI at 1 754 Kbps
Length : 988 MiB for 1h 18mn 43s 252ms

Video #0 : MPEG-4 Visual at 1 614 Kbps
Aspect : 680 x 368 (1.848) at 29.970 fps

Audio #0 : MPEG Audio at 128 Kbps
Infos : 2 kanály, 44,1 KHz



Obrázok
Tentokrát si naši staří známí vyrážejí užít prázdniny na luxusní výletní loď, kterou svým dováděním během chvíle obrátí naruby. Chimpunkové a Chipettky páchají na parníku, který se stal dočasně jejich hracím hřištěm, jednu lumpárnu za druhou a zpestřují tak prázdniny nejen sobě, ale i všem ostatním pasažérům. Veškerá legrace ale končí ve chvíli, kdy ztroskotají na opuštěném ostrově, ze kterého, jak se zdá, není úniku. Brzy se ale ukáže, že ostrov není tak opuštěný, jak to na první pohled vypadalo. Alvin a jeho přátelé potkávají nového kamaráda, se kterým se vydávají na dobrodružné putování po ostrově, na jehož konci je čeká velké překvapení.


Obrázok
Odkaz na stiahnutie:
Pre zobrazenie odkazov sa musíte alebo

Odkaz na stiahnutie:
Pre zobrazenie odkazov sa musíte alebo
Všetky uploady sú moje a sú bez hesla, reup nerobím, poďakovanie poteší...

Obrázok užívateľa
camejko
Top Prispievateľ
Top Prispievateľ
 
Príspevky: 280
Registrovaný: Uto Júl 15, 2008 10:21 am
Has thanked: 0 time
Been thanked: 24 times

Poslaťod camejko » Pon Jan 09, 2012 12:06 am

Alvin a Chipmunkové | CZE | 2011 | Alvin a Chipmunkové 3, 2011 XviD CZ dabing

Obrázok

=[iNFO & QUALiTY]=

General

Format : AVI
Format/Info : Audio Video Interleave
File size : 988 MiB
Duration : 1h 18mn
Overall bit rate : 1 754 Kbps
Writing application : VirtualDubMod 1.5.10.2 (build 2540/release)
Writing library : VirtualDubMod build 2540/release

Video

ID : 0
Format : MPEG-4 Visual
Format profile : Advanced Simple@L5
Format settings, BVOP : Yes
Format settings, QPel : No
Format settings, GMC : No warppoints
Format settings, Matrix : Default (H.263)
Muxing mode : Packed bitstream
Codec ID : XVID
Codec ID/Hint : XviD
Duration : 1h 18mn
Bit rate : 1 614 Kbps
Width : 680 pixels
Height : 368 pixels
Display aspect ratio : 16:9
Frame rate : 29.970 fps
Color space : YUV
Chroma subsampling : 4:2:0
Bit depth : 8 bits
Scan type : Progressive
Compression mode : Lossy
Bits/(Pixel*Frame) : 0.215
Stream size : 909 MiB (92%)
Writing library : XviD 64

Audio

ID : 1
Format : MPEG Audio
Format version : Version 1
Format profile : Layer 3
Mode : Joint stereo
Mode extension : MS Stereo
Codec ID : 55
Codec ID/Hint : MP3
Duration : 1h 18mn
Bit rate mode : Constant
Bit rate : 128 Kbps
Channel(s) : 2 channels
Sampling rate : 44.1 KHz
Compression mode : Lossy
Stream size : 72.1 MiB (7%)
Alignment : Split accross interleaves
Interleave, duration : 33 ms (1.00 video frame)
Interleave, preload duration : 500 ms



=[IMDB]=
Odkaz na stiahnutie:
Pre zobrazenie odkazov sa musíte alebo



------------------------
Playing around while aboard a cruise ship, the Chipmunks and Chipettes accidentally go overboard and end up marooned in a tropical paradise. They discover their new turf is not as deserted as it seems.

=[Screens]=
Odkaz na stiahnutie:
Pre zobrazenie odkazov sa musíte alebo


=[Download]=
=[2000 MB SPLiT FiLES]=
=[HELLSHARE]=
Odkaz na stiahnutie:
Pre zobrazenie odkazov sa musíte alebo




=[Bez Hesla / No Password]=

=[Enjoy with camejko]=

Obrázok užívateľa
pista11
Excellent User
Excellent User
 
Príspevky: 906
Registrovaný: Štv Aug 13, 2009 2:31 pm
Has thanked: 0 time
Been thanked: 201 times

Poslaťod pista11 » Pon Jan 09, 2012 1:01 am

Obrázok
Alvin a Chipmunkové 3 / Alvin and the Chipmunks 3 (2011)

CZ dabing! / CAM rip (na kamerový rip VÝBORNÁ KVALITA, oplatí sa stiahnúť)! / Velkosť: 988 MB! / Dľžka: 01:18:43 / Sťahuj len 1 link ZADARMO (na 3 serveroch)!

Obrázok
Alvin.a.Chipmunkove.3.2011.CAMRip.CZ

Obrázok
Obrázok

Obrázok
Odkaz na stiahnutie:
Pre zobrazenie odkazov sa musíte alebo


Obrázok

Veľkosť súboru : 988 MB

[Film]
Platnosť : Ano [AVI]
Trvanie : 01:18:43
Kompletný film : Ano

[Video]
Rozlíšenie : 680x368
Kodek : XviD MPEG-4 codec
FPS : 29.97
BitRate : 1626 Kbps
Quality Factor : 0.22 b/px

[Audio]
Kodek : MPEG 1 or 2 Audio Layer 3 (MP3)
Počet kanálov : 2
Sample Rate : 44100 Hz
BitRate : 128 Kbps

Obrázok
Obrázok
Odkaz na stiahnutie:
Pre zobrazenie odkazov sa musíte alebo


Obrázok
Odkaz na stiahnutie:
Pre zobrazenie odkazov sa musíte alebo


Obrázok
Odkaz na stiahnutie:
Pre zobrazenie odkazov sa musíte alebo



Obrázok


Obrázok
AVI súbor!
Nahrávané na 3 serveri! Pri väčšom počte linkov sú linky medzi servermi kombinovateľné!
Ďakujem poteší ;)
Predaj kreditov na share-rapid.com a czshare.com! Ceny dohodou!

Pre viac info piste SS.

ENTURE01
Prispievateľ
Prispievateľ
 
Príspevky: 99
Registrovaný: Uto Júl 19, 2011 3:46 pm
Has thanked: 0 time
Been thanked: 8 times

Poslaťod ENTURE01 » Pon Jan 09, 2012 3:50 pm

Alvin a Chipmunkové 3 / Alvin and the Chipmunks 3 (2011)
Release: Alvin.a.Chipmunkove.3.2011.CAMRip.CZ

Obrázok


CSFD:
Odkaz na stiahnutie:
Pre zobrazenie odkazov sa musíte alebo



Animovaný / Komedie / Rodinný / Hudební

USA, 2011
Režie:
Mike Mitchell
Hudba:
Mark Mothersbaugh
Hrají:
Jason Lee, Matthew Gray Gubler, Amy Poehler, Jesse McCartney, Anna Faris, Christina Applegate, Alyssa Milano, Justin Long, Luisa D´Oliveira, David Cross, Jenny Slate



INFO:
Odkaz na stiahnutie:
Pre zobrazenie odkazov sa musíte alebo



DOWNLOAD:
HELLSHARE:
Odkaz na stiahnutie:
Pre zobrazenie odkazov sa musíte alebo

SHARERAPID
Odkaz na stiahnutie:
Pre zobrazenie odkazov sa musíte alebo

GABITAMI
Gold User
Gold User
 
Príspevky: 1543
Registrovaný: Pia Apr 04, 2008 4:36 am
Has thanked: 0 time
Been thanked: 102 times

Poslaťod GABITAMI » Pon Jan 09, 2012 5:26 pm

Alvin a Chipmunkové 3 / Alvin and the Chipmunks 3 (2011)
Rel:Alvin.a.Chipmunkove.3.2011.CAMRip.CZ
Obrázok


Obrázok
Odkaz na stiahnutie:
Pre zobrazenie odkazov sa musíte alebo



Animovaný / Komedie / Rodinný / Hudební

USA, 2011
Režie:Mike Mitchell
Hudba:Mark Mothersbaugh
Hrají:
Jason Lee, Matthew Gray Gubler, Amy Poehler, Jesse McCartney, Anna Faris, Christina Applegate, Alyssa Milano, Justin Long, Luisa D´Oliveira, David Cross, Jenny Slate


Tentokrát si naši staří známí vyrážejí užít prázdniny na luxusní výletní loď, kterou svým dováděním během chvíle obrátí naruby. Chimpunkové a Chipettky páchají na parníku, který se stal dočasně jejich hracím hřištěm, jednu lumpárnu za druhou a zpestřují tak prázdniny nejen sobě, ale i všem ostatním pasažérům. Veškerá legrace ale končí ve chvíli, kdy ztroskotají na opuštěném ostrově, ze kterého, jak se zdá, není úniku. Brzy se ale ukáže, že ostrov není tak opuštěný, jak to na první pohled vypadalo. Alvin a jeho přátelé potkávají nového kamaráda, se kterým se vydávají na dobrodružné putování po ostrově, na jehož konci je čeká velké překvapení.


KVALITA:
Size : 988 MB
Odkaz na stiahnutie:
Pre zobrazenie odkazov sa musíte alebo



SCREENSHOTS:
Obrázok



DOWNLOAD:
Obrázok
Odkaz na stiahnutie:
Pre zobrazenie odkazov sa musíte alebo

Obrázok
Odkaz na stiahnutie:
Pre zobrazenie odkazov sa musíte alebo

Obrázok
Odkaz na stiahnutie:
Pre zobrazenie odkazov sa musíte alebo

Obrázok užívateľa
-MiReC-
ourphorum ELITA
ourphorum ELITA
 
Príspevky: 2492
Registrovaný: Ned Apr 11, 2010 7:44 am
Has thanked: 0 time
Been thanked: 239 times

Poslaťod -MiReC- » Pon Jan 09, 2012 6:40 pm

Obrázok

Alvin a Chipmunkové 3 / Alvin and the Chipmunks 3 (2011) CZ
Alvin.a.Chipmunkove.3.2011.CAMRip.CZ

Obrázok
Obrázok
Obrázok
Odkaz na stiahnutie:
Pre zobrazenie odkazov sa musíte alebo

Obrázok

Animovaný / Komedie / Rodinný / Hudební
USA, 2011, 87 min
Režie:Mike Mitchell
Hudba:Mark Mothersbaugh
Hrají:Jason Lee, Matthew Gray Gubler, Amy Poehler, Jesse McCartney, Anna Faris, Christina Applegate, Alyssa Milano, Justin Long, Luisa D´Oliveira, David Cross, Jenny Slate


Tentokrát si naši staří známí vyrážejí užít prázdniny na luxusní výletní loď, kterou svým dováděním během chvíle obrátí naruby. Chimpunkové a Chipettky páchají na parníku, který se stal dočasně jejich hracím hřištěm, jednu lumpárnu za druhou a zpestřují tak prázdniny nejen sobě, ale i všem ostatním pasažérům. Veškerá legrace ale končí ve chvíli, kdy ztroskotají na opuštěném ostrově, ze kterého, jak se zdá, není úniku. Brzy se ale ukáže, že ostrov není tak opuštěný, jak to na první pohled vypadalo. Alvin a jeho přátelé potkávají nového kamaráda, se kterým se vydávají na dobrodružné putování po ostrově, na jehož konci je čeká velké překvapení.

Obrázok
Odkaz na stiahnutie:
Pre zobrazenie odkazov sa musíte alebo

Obrázok
Obrázok
Odkaz na stiahnutie:
Pre zobrazenie odkazov sa musíte alebo

Obrázok
Odkaz na stiahnutie:
Pre zobrazenie odkazov sa musíte alebo

Obrázok
Odkaz na stiahnutie:
Pre zobrazenie odkazov sa musíte alebo

Obrázok
Odkaz na stiahnutie:
Pre zobrazenie odkazov sa musíte alebo

Obrázok
Odkaz na stiahnutie:
Pre zobrazenie odkazov sa musíte alebo

Obrázok
Odkaz na stiahnutie:
Pre zobrazenie odkazov sa musíte alebo

Obrázok
Odkaz na stiahnutie:
Pre zobrazenie odkazov sa musíte alebo

Obrázok
Odkaz na stiahnutie:
Pre zobrazenie odkazov sa musíte alebo

Obrázok
Odkaz na stiahnutie:
Pre zobrazenie odkazov sa musíte alebo

Obrázok
Odkaz na stiahnutie:
Pre zobrazenie odkazov sa musíte alebo


Obrázok
Obrázok

Obrázok užívateľa
OnlinePetulo
Power User
Power User
 
Príspevky: 606
Registrovaný: Štv Jan 01, 2009 6:18 pm
Has thanked: 0 time
Been thanked: 45 times

Poslaťod OnlinePetulo » Uto Jan 10, 2012 10:08 am

Alvin a Chipmunkové 3
Obrázok

Tentokrát si naši staří známí vyrážejí užít prázdniny na luxusní výletní loď, kterou svým dováděním během chvíle obrátí naruby. Chimpunkové a Chipettky páchají na parníku, který se stal dočasně jejich hracím hřištěm, jednu lumpárnu za druhou a zpestřují tak prázdniny nejen sobě, ale i všem ostatním pasažérům. Veškerá legrace ale končí ve chvíli, kdy ztroskotají na opuštěném ostrově, ze kterého, jak se zdá, není úniku. Brzy se ale ukáže, že ostrov není tak opuštěný, jak to na první pohled vypadalo. Alvin a jeho přátelé potkávají nového kamaráda, se kterým se vydávají na dobrodružné putování po ostrově, na jehož konci je čeká velké překvapení.

Obrázok
Odkaz na stiahnutie:
Pre zobrazenie odkazov sa musíte alebo


Obrázok
Odkaz na stiahnutie:
Pre zobrazenie odkazov sa musíte alebo

Herrynek
Prispievateľ
Prispievateľ
 
Príspevky: 66
Registrovaný: Uto Júl 12, 2011 12:14 pm
Has thanked: 0 time
Been thanked: 1 time

Poslaťod Herrynek » Uto Jan 10, 2012 10:27 am

Obrázok
Alvin a Chipmunkové 3 / Alvin and the Chipmunks 3 (2011)

Obrázok
Alvin.a.Chipmunkove.3.2011.CAMRip.CZ

Obrázok
Obrázok

Obrázok
Odkaz na stiahnutie:
Pre zobrazenie odkazov sa musíte alebo


Obrázok
Odkaz na stiahnutie:
Pre zobrazenie odkazov sa musíte alebo


Obrázok
Obrázok

Obrázok
Odkaz na stiahnutie:
Pre zobrazenie odkazov sa musíte alebo


Obrázok

skelq
Top Prispievateľ
Top Prispievateľ
 
Príspevky: 223
Registrovaný: Pia Júl 31, 2009 3:05 pm
Has thanked: 1 time
Been thanked: 37 times

Poslaťod skelq » Uto Jan 10, 2012 4:14 pm

Alvin a Chipmunkové 3 / Alvin and the Chipmunks 3 (2011) CZ
Alvin.a.Chipmunkove.3.2011.CAMRip.CZ

CSFD
http://www.csfd.cz/film/282379-alvin-a-chipmunkove-3/

Size: 715.1 MiB
Genre: Animovaný / Komedie / Rodinný / Hudební
Runtime: 1h 18mn 43s
Video: 680x368 /1 129 Kbps/29.970 fps
Audio:


Hellshare
Odkaz na stiahnutie:
Pre zobrazenie odkazov sa musíte alebo


zaznam pre opravu dat 3%

Produkt23
Prispievateľ
Prispievateľ
 
Príspevky: 61
Registrovaný: Štv Máj 21, 2009 4:03 pm
Has thanked: 4 times
Been thanked: 0 time

Poslaťod Produkt23 » Sob Jan 14, 2012 12:19 am

Alvin and the Chipmunks 3 / Alvin a Chipmunkové 3 (2011) CZ

Obrázok

INFO:

Odkaz na stiahnutie:
Pre zobrazenie odkazov sa musíte alebo


Odkaz na stiahnutie:
Pre zobrazenie odkazov sa musíte alebo


DOWNLOAD:

Odkaz na stiahnutie:
Pre zobrazenie odkazov sa musíte alebo

wojto7
Prispievateľ
Prispievateľ
 
Príspevky: 160
Registrovaný: Pon Jan 24, 2011 5:33 pm
Has thanked: 3 times
Been thanked: 12 times

Poslaťod wojto7 » Pon Jan 16, 2012 11:50 pm

Obrázok

Alvin a Chipmunkové 3 / Alvin and the Chipmunks 3 (2011) CZ
Alvin.a.Chipmunkove.3.2011.CAMRip.CZ

Obrázok

Obrázok

Obrázok

Odkaz na stiahnutie:
Pre zobrazenie odkazov sa musíte alebo


Obrázok

USA, 2011
Režie:Mike Mitchell
Hudba:Mark Mothersbaugh
Hrají:
Jason Lee, Matthew Gray Gubler, Amy Poehler, Jesse McCartney, Anna Faris, Christina Applegate, Alyssa Milano, Justin Long, Luisa D´Oliveira, David Cross, Jenny Slate

Tentokrát si naši staří známí vyrážejí užít prázdniny na luxusní výletní loď, kterou svým dováděním během chvíle obrátí naruby. Chimpunkové a Chipettky páchají na parníku, který se stal dočasně jejich hracím hřištěm, jednu lumpárnu za druhou a zpestřují tak prázdniny nejen sobě, ale i všem ostatním pasažérům. Veškerá legrace ale končí ve chvíli, kdy ztroskotají na opuštěném ostrově, ze kterého, jak se zdá, není úniku. Brzy se ale ukáže, že ostrov není tak opuštěný, jak to na první pohled vypadalo. Alvin a jeho přátelé potkávají nového kamaráda, se kterým se vydávají na dobrodružné putování po ostrově, na jehož konci je čeká velké překvapení.

Trvanie : 01:18:43
Video:
Rozlíšenie : 680x368
Kodek : XviD MPEG-4 codec
FPS : 29.97
BitRate : 1626 Kbps
Quality Factor : 0.22 b/px
Audio:
Kodek : MPEG 1 or 2 Audio Layer 3 (MP3)
Počet kanálov : 2
Sample Rate : 44100 Hz
BitRate : 128 Kbps


Obrázok

Obrázok
Odkaz na stiahnutie:
Pre zobrazenie odkazov sa musíte alebo


Obrázok
Odkaz na stiahnutie:
Pre zobrazenie odkazov sa musíte alebo


Späť na Archív príspevkov [2011-2014]

Kto je on-line

Užívatelia prezerajúci fórum: Žiadny registrovaný užívateľ nie je prítomný a 0 hostia