Obsah fóra www.ourphorum.com





Alvin a Chipmunkové 3 / Alvin and the Chipmunks 3 (2011)

Archív príspevkov [2011-2014]

(SK) stiahnuť zadarmo (CZ) ke stazení zdarma

Podporujeme tieto filehostingové servery : Share-rapid | Hellshare | Rapidshare | CZshare | Upnito | UlozTO

Toto fórum je zamknuté, nemôžete tu písať ani upravovať príspevky!   Táto téma je zamknutá, nemôžete tu pridávať odpovede ani upravovať svoje príspevky!    Obsah fóra www.ourphorum.com -> Archív príspevkov [2011-2014]
Zobraziť predchádzajúcu tému :: Zobraziť nasledujúcu tému  
Autor

Správa

COLLY
ourphorum MAFIA
ourphorum MAFIA


User is Offline

Založený: 27 máj 2011

Príspevky: 3757

Poďakovaní : 261 v 223 príspevkoch


Reputácia :

539

Hlasovalo : 9

PríspevokZaslal: So január 07, 2012 5:32 pm    Predmet: Alvin a Chipmunkové 3 / Alvin and the Chipmunks 3 (2011) Odpovedať s citátom


Alvin a Chipmunkové 3 / Alvin and the Chipmunks 3 (2011)
Release: Alvin.a.Chipmunkove.3.2011.CAMRip.CZ








FastShare.cz: Milióny súborov na stiahnutie zadarmo alebo neobmedzenou rýchlosťou 140 GB za € 4!





Stiahnut subor : Link na stiahnutie sa zobrazi az po zaregistrovani a prihlaseni.Zaregistrujte sa pre plnohodnotny pristup a vyuzivanie fora.






FastShare.cz: Milióny súborov na stiahnutie zadarmo alebo neobmedzenou rýchlosťou 140 GB za € 4!





Stiahnut subor : Link na stiahnutie sa zobrazi az po zaregistrovani a prihlaseni.Zaregistrujte sa pre plnohodnotny pristup a vyuzivanie fora.







FastShare.cz: Milióny súborov na stiahnutie zadarmo alebo neobmedzenou rýchlosťou 140 GB za € 4!





Stiahnut subor : Link na stiahnutie sa zobrazi az po zaregistrovani a prihlaseni.Zaregistrujte sa pre plnohodnotny pristup a vyuzivanie fora.





FastShare.cz: Milióny súborov na stiahnutie zadarmo alebo neobmedzenou rýchlosťou 140 GB za € 4!





Stiahnut subor : Link na stiahnutie sa zobrazi az po zaregistrovani a prihlaseni.Zaregistrujte sa pre plnohodnotny pristup a vyuzivanie fora.





FastShare.cz: Milióny súborov na stiahnutie zadarmo alebo neobmedzenou rýchlosťou 140 GB za € 4!





Stiahnut subor : Link na stiahnutie sa zobrazi az po zaregistrovani a prihlaseni.Zaregistrujte sa pre plnohodnotny pristup a vyuzivanie fora.





FastShare.cz: Milióny súborov na stiahnutie zadarmo alebo neobmedzenou rýchlosťou 140 GB za € 4!





Stiahnut subor : Link na stiahnutie sa zobrazi az po zaregistrovani a prihlaseni.Zaregistrujte sa pre plnohodnotny pristup a vyuzivanie fora.





FastShare.cz: Milióny súborov na stiahnutie zadarmo alebo neobmedzenou rýchlosťou 140 GB za € 4!





Stiahnut subor : Link na stiahnutie sa zobrazi az po zaregistrovani a prihlaseni.Zaregistrujte sa pre plnohodnotny pristup a vyuzivanie fora.





FastShare.cz: Milióny súborov na stiahnutie zadarmo alebo neobmedzenou rýchlosťou 140 GB za € 4!





Stiahnut subor : Link na stiahnutie sa zobrazi az po zaregistrovani a prihlaseni.Zaregistrujte sa pre plnohodnotny pristup a vyuzivanie fora.





FastShare.cz: Milióny súborov na stiahnutie zadarmo alebo neobmedzenou rýchlosťou 140 GB za € 4!





Stiahnut subor : Link na stiahnutie sa zobrazi az po zaregistrovani a prihlaseni.Zaregistrujte sa pre plnohodnotny pristup a vyuzivanie fora.





FastShare.cz: Milióny súborov na stiahnutie zadarmo alebo neobmedzenou rýchlosťou 140 GB za € 4!





Stiahnut subor : Link na stiahnutie sa zobrazi az po zaregistrovani a prihlaseni.Zaregistrujte sa pre plnohodnotny pristup a vyuzivanie fora.






_________________________________
VIEM ZOHNAŤ VŠETKO, PÍŠTE
VŠETKO JE MOJ UPLOAD / MY UPLOAD
NA SHARE-RAPID NEUPUJEM!
LINKY SÚ KOMBINOVATEĽNÉ
RAR BEZ HESLA / NO PASS
ŽIADOSŤ O REUPLOAD -> PROSÍM PM/SS

Za PowerUploaders pre Vás nahral Colly !!
Návrat hore
Zobrazit informácie o autorovi Odoslať súkromnú správu

Anonymous_26032013
Anonymný












PríspevokZaslal: So január 07, 2012 8:34 pm    Predmet: Odpovedať s citátom

Alvin.a.Chipmunkove.3.2011.CAMRip. CZ ZVUK
CSFD


FastShare.cz: Milióny súborov na stiahnutie zadarmo alebo neobmedzenou rýchlosťou 140 GB za € 4!





Stiahnut subor : Link na stiahnutie sa zobrazi az po zaregistrovani a prihlaseni.Zaregistrujte sa pre plnohodnotny pristup a vyuzivanie fora.





FastShare.cz: Milióny súborov na stiahnutie zadarmo alebo neobmedzenou rýchlosťou 140 GB za € 4!





Stiahnut subor : Link na stiahnutie sa zobrazi az po zaregistrovani a prihlaseni.Zaregistrujte sa pre plnohodnotny pristup a vyuzivanie fora.





FastShare.cz: Milióny súborov na stiahnutie zadarmo alebo neobmedzenou rýchlosťou 140 GB za € 4!





Stiahnut subor : Link na stiahnutie sa zobrazi az po zaregistrovani a prihlaseni.Zaregistrujte sa pre plnohodnotny pristup a vyuzivanie fora.

Návrat hore

lapepa
Gold User
Gold User


User is Offline

Založený: 01 september 2010

Príspevky: 1824

Poďakovaní : 134 v 122 príspevkoch


Reputácia :

318.4

Hlasovalo : 2

PríspevokZaslal: So január 07, 2012 9:01 pm    Predmet: Odpovedať s citátom

Alvin a Chipmunkové 3 / Alvin and the Chipmunks 3 (2011)
Alvin.a.Chipmunkove.3.2011.CAMRip.CZ






FastShare.cz: Milióny súborov na stiahnutie zadarmo alebo neobmedzenou rýchlosťou 140 GB za € 4!





Stiahnut subor : Link na stiahnutie sa zobrazi az po zaregistrovani a prihlaseni.Zaregistrujte sa pre plnohodnotny pristup a vyuzivanie fora.





GENERAL CAMRip.CZ
citácia:
Format : AVI
Format/Info : Audio Video Interleave
File size : 988 MiB
Duration : 1h 18mn
Overall bit rate : 1 754 Kbps
Writing application : VirtualDubMod 1.5.10.2 (build 2540/release)
Writing library : VirtualDubMod build 2540/release

Video
ID : 0
Format : MPEG-4 Visual
Format profile : Advanced Simple@L5
Format settings, BVOP : 2
Format settings, QPel : No
Format settings, GMC : No warppoints
Format settings, Matrix : Default (H.263)
Muxing mode : Packed bitstream
Codec ID : XVID
Codec ID/Hint : XviD
Duration : 1h 18mn
Bit rate : 1 614 Kbps
Width : 680 pixels
Height : 368 pixels
Display aspect ratio : 16:9
Frame rate : 29.970 fps
Color space : YUV
Chroma subsampling : 4:2:0
Bit depth : 8 bits
Scan type : Progressive
Compression mode : Lossy
Bits/(Pixel*Frame) : 0.215
Stream size : 909 MiB (92%)
Writing library : XviD 64

Audio
ID : 1
Format : MPEG Audio
Format version : Version 1
Format profile : Layer 3
Mode : Joint stereo
Mode extension : MS Stereo
Codec ID : 55
Codec ID/Hint : MP3
Duration : 1h 18mn
Bit rate mode : Constant
Bit rate : 128 Kbps
Channel(s) : 2 channels
Sampling rate : 44.1 KHz
Compression mode : Lossy
Stream size : 72.1 MiB (7%)
Alignment : Split accross interleaves
Interleave, duration : 33 ms (1.00 video frame)
Interleave, preload duration : 500 ms







FastShare.cz: Milióny súborov na stiahnutie zadarmo alebo neobmedzenou rýchlosťou 140 GB za € 4!





Stiahnut subor : Link na stiahnutie sa zobrazi az po zaregistrovani a prihlaseni.Zaregistrujte sa pre plnohodnotny pristup a vyuzivanie fora.







FastShare.cz: Milióny súborov na stiahnutie zadarmo alebo neobmedzenou rýchlosťou 140 GB za € 4!





Stiahnut subor : Link na stiahnutie sa zobrazi az po zaregistrovani a prihlaseni.Zaregistrujte sa pre plnohodnotny pristup a vyuzivanie fora.







FastShare.cz: Milióny súborov na stiahnutie zadarmo alebo neobmedzenou rýchlosťou 140 GB za € 4!





Stiahnut subor : Link na stiahnutie sa zobrazi az po zaregistrovani a prihlaseni.Zaregistrujte sa pre plnohodnotny pristup a vyuzivanie fora.






FastShare.cz: Milióny súborov na stiahnutie zadarmo alebo neobmedzenou rýchlosťou 140 GB za € 4!





Stiahnut subor : Link na stiahnutie sa zobrazi az po zaregistrovani a prihlaseni.Zaregistrujte sa pre plnohodnotny pristup a vyuzivanie fora.

Návrat hore
Zobrazit informácie o autorovi Odoslať súkromnú správu

justinlee_2010
Power User
Power User


User is Offline

Založený: 13 apríl 2011

Príspevky: 690

Poďakovaní : 43 v 36 príspevkoch


Reputácia :

164.7

Hlasovalo : 3

PríspevokZaslal: So január 07, 2012 9:23 pm    Predmet: Odpovedať s citátom

Alvin_a_Chipmunkové 3 / Alvin_and_the_Chipmunks 3_2011_KinoRip-CZ






FastShare.cz: Milióny súborov na stiahnutie zadarmo alebo neobmedzenou rýchlosťou 140 GB za € 4!





Stiahnut subor : Link na stiahnutie sa zobrazi az po zaregistrovani a prihlaseni.Zaregistrujte sa pre plnohodnotny pristup a vyuzivanie fora.


citácia:
Animovaný / Komedie / Rodinný / Hudební
USA, 2011
Režie:
Mike Mitchell
Hudba:
Mark Mothersbaugh
Hrají:
Jason Lee, Matthew Gray Gubler, Amy Poehler, Jesse McCartney, Anna Faris, Christina Applegate, Alyssa Milano, Justin Long, Luisa D´Oliveira, David Cross, Jenny Slate

Tentokrát si naši staří známí vyrážejí užít prázdniny na luxusní výletní loď, kterou svým dováděním během chvíle obrátí naruby. Chimpunkové a Chipettky páchají na parníku, který se stal dočasně jejich hracím hřištěm, jednu lumpárnu za druhou a zpestřují tak prázdniny nejen sobě, ale i všem ostatním pasažérům. Veškerá legrace ale končí ve chvíli, kdy ztroskotají na opuštěném ostrově, ze kterého, jak se zdá, není úniku. Brzy se ale ukáže, že ostrov není tak opuštěný, jak to na první pohled vypadalo. Alvin a jeho přátelé potkávají nového kamaráda, se kterým se vydávají na dobrodružné putování po ostrově, na jehož konci je čeká velké překvapení.


RLS:Alvin.a.Chipmunkove.3.2011.CAMRip.CZ
citácia:

Format : AVI
Format/Info : Audio Video Interleave
File size : 988 MiB
Duration : 1h 18mn
Overall bit rate : 1 754 Kbps
Writing application : VirtualDubMod 1.5.10.2 (build 2540/release)
Writing library : VirtualDubMod build 2540/release

Video
ID : 0
Format : MPEG-4 Visual
Format profile : Advanced Simple@L5
Format settings, BVOP : 2
Format settings, QPel : No
Format settings, GMC : No warppoints
Format settings, Matrix : Default (H.263)
Muxing mode : Packed bitstream
Codec ID : XVID
Codec ID/Hint : XviD
Duration : 1h 18mn
Bit rate : 1 614 Kbps
Width : 680 pixels
Height : 368 pixels
Display aspect ratio : 16:9
Frame rate : 29.970 fps
Color space : YUV
Chroma subsampling : 4:2:0
Bit depth : 8 bits
Scan type : Progressive
Compression mode : Lossy
Bits/(Pixel*Frame) : 0.215
Stream size : 909 MiB (92%)
Writing library : XviD 64

Audio
ID : 1
Format : MPEG Audio
Format version : Version 1
Format profile : Layer 3
Mode : Joint stereo
Mode extension : MS Stereo
Codec ID : 55
Codec ID/Hint : MP3
Duration : 1h 18mn
Bit rate mode : Constant
Bit rate : 128 Kbps
Channel(s) : 2 channels
Sampling rate : 44.1 KHz
Compression mode : Lossy
Stream size : 72.1 MiB (7%)
Alignment : Split accross interleaves
Interleave, duration : 33 ms (1.00 video frame)
Interleave, preload duration : 500 ms







FastShare.cz: Milióny súborov na stiahnutie zadarmo alebo neobmedzenou rýchlosťou 140 GB za € 4!





Stiahnut subor : Link na stiahnutie sa zobrazi az po zaregistrovani a prihlaseni.Zaregistrujte sa pre plnohodnotny pristup a vyuzivanie fora.








FastShare.cz: Milióny súborov na stiahnutie zadarmo alebo neobmedzenou rýchlosťou 140 GB za € 4!





Stiahnut subor : Link na stiahnutie sa zobrazi az po zaregistrovani a prihlaseni.Zaregistrujte sa pre plnohodnotny pristup a vyuzivanie fora.









FastShare.cz: Milióny súborov na stiahnutie zadarmo alebo neobmedzenou rýchlosťou 140 GB za € 4!





Stiahnut subor : Link na stiahnutie sa zobrazi az po zaregistrovani a prihlaseni.Zaregistrujte sa pre plnohodnotny pristup a vyuzivanie fora.




Návrat hore
Zobrazit informácie o autorovi Odoslať súkromnú správu

fiusion552
Power User
Power User


User is Offline

Založený: 10 december 2011

Príspevky: 536

Poďakovaní : 57 v 51 príspevkoch


Reputácia :

37.1

Hlasovalo : 3

PríspevokZaslal: So január 07, 2012 9:37 pm    Predmet: Odpovedať s citátom

Alvin.a.Chipmunkove.3.2011.CAMRip.CZ
Alvin a Chipmunkové 3 / Alvin and the Chipmunks 3 (2011)






FastShare.cz: Milióny súborov na stiahnutie zadarmo alebo neobmedzenou rýchlosťou 140 GB za € 4!





Stiahnut subor : Link na stiahnutie sa zobrazi az po zaregistrovani a prihlaseni.Zaregistrujte sa pre plnohodnotny pristup a vyuzivanie fora.




FastShare.cz: Milióny súborov na stiahnutie zadarmo alebo neobmedzenou rýchlosťou 140 GB za € 4!





Stiahnut subor : Link na stiahnutie sa zobrazi az po zaregistrovani a prihlaseni.Zaregistrujte sa pre plnohodnotny pristup a vyuzivanie fora.






FastShare.cz: Milióny súborov na stiahnutie zadarmo alebo neobmedzenou rýchlosťou 140 GB za € 4!





Stiahnut subor : Link na stiahnutie sa zobrazi az po zaregistrovani a prihlaseni.Zaregistrujte sa pre plnohodnotny pristup a vyuzivanie fora.





FastShare.cz: Milióny súborov na stiahnutie zadarmo alebo neobmedzenou rýchlosťou 140 GB za € 4!





Stiahnut subor : Link na stiahnutie sa zobrazi az po zaregistrovani a prihlaseni.Zaregistrujte sa pre plnohodnotny pristup a vyuzivanie fora.





FastShare.cz: Milióny súborov na stiahnutie zadarmo alebo neobmedzenou rýchlosťou 140 GB za € 4!





Stiahnut subor : Link na stiahnutie sa zobrazi az po zaregistrovani a prihlaseni.Zaregistrujte sa pre plnohodnotny pristup a vyuzivanie fora.





FastShare.cz: Milióny súborov na stiahnutie zadarmo alebo neobmedzenou rýchlosťou 140 GB za € 4!





Stiahnut subor : Link na stiahnutie sa zobrazi az po zaregistrovani a prihlaseni.Zaregistrujte sa pre plnohodnotny pristup a vyuzivanie fora.


Návrat hore
Zobrazit informácie o autorovi Odoslať súkromnú správu

shelbygt
ourphorum ELITA
ourphorum ELITA


User is Offline

Založený: 12 marec 2009

Príspevky: 2351

Poďakovaní : 322 v 184 príspevkoch


Reputácia :

658.3

Hlasovalo : 16

PríspevokZaslal: Ne január 08, 2012 6:50 am    Predmet: Odpovedať s citátom

Alvin a Chipmunkové 3 / Alvin and the Chipmunks 3 (2011)
Rel:Alvin.a.Chipmunkove.3.2011.CAMRip.CZ


Jazyk:CZ
Animovaný / Komedie / Rodinný / Hudební
USA, 2011, 87 min
Režie:Mike Mitchell
Hudba:Mark Mothersbaugh
Hrají:Jason Lee, Matthew Gray Gubler, Amy Poehler, Jesse McCartney, Anna Faris, Christina Applegate, Alyssa Milano, Justin Long, Luisa D´Oliveira, David Cross, Jenny Slate
Odkaz


FastShare.cz: Milióny súborov na stiahnutie zadarmo alebo neobmedzenou rýchlosťou 140 GB za € 4!





Stiahnut subor : Link na stiahnutie sa zobrazi az po zaregistrovani a prihlaseni.Zaregistrujte sa pre plnohodnotny pristup a vyuzivanie fora.


Obsah
Tentokrát si naši staří známí vyrážejí užít prázdniny na luxusní výletní loď, kterou svým dováděním během chvíle obrátí naruby. Chimpunkové a Chipettky páchají na parníku, který se stal dočasně jejich hracím hřištěm, jednu lumpárnu za druhou a zpestřují tak prázdniny nejen sobě, ale i všem ostatním pasažérům. Veškerá legrace ale končí ve chvíli, kdy ztroskotají na opuštěném ostrově, ze kterého, jak se zdá, není úniku. Brzy se ale ukáže, že ostrov není tak opuštěný, jak to na první pohled vypadalo. Alvin a jeho přátelé potkávají nového kamaráda, se kterým…
INFO
citácia:
General / Container Stream #1
File Format.......................................AVI
Play Time.........................................1h 18mn
Total File Size...................................988 MiB
Video Stream #1
Frame Width.......................................680 pixels
Frame Height......................................368 pixels
Frame Rate........................................29.970 fps
Display Aspect Ratio..............................16:9
Audio Stream #1
Codec.............................................MPEG Audio
Audio Stream BitRate..............................128 Kbps
Number of Audio Channels..........................2

Hellshare


FastShare.cz: Milióny súborov na stiahnutie zadarmo alebo neobmedzenou rýchlosťou 140 GB za € 4!





Stiahnut subor : Link na stiahnutie sa zobrazi az po zaregistrovani a prihlaseni.Zaregistrujte sa pre plnohodnotny pristup a vyuzivanie fora.


Share-Rapid


FastShare.cz: Milióny súborov na stiahnutie zadarmo alebo neobmedzenou rýchlosťou 140 GB za € 4!





Stiahnut subor : Link na stiahnutie sa zobrazi az po zaregistrovani a prihlaseni.Zaregistrujte sa pre plnohodnotny pristup a vyuzivanie fora.


Euroshare


FastShare.cz: Milióny súborov na stiahnutie zadarmo alebo neobmedzenou rýchlosťou 140 GB za € 4!





Stiahnut subor : Link na stiahnutie sa zobrazi az po zaregistrovani a prihlaseni.Zaregistrujte sa pre plnohodnotny pristup a vyuzivanie fora.


No Pass
Návrat hore
Zobrazit informácie o autorovi Odoslať súkromnú správu

falopes
Gold User
Gold User


User is Offline

Založený: 13 február 2009

Príspevky: 1348

Poďakovaní : 423 v 312 príspevkoch


Reputácia :

366.9

Hlasovalo : 2

PríspevokZaslal: Ne január 08, 2012 12:26 pm    Predmet: Odpovedať s citátom

Alvin a Chipmunkové 3 / Alvin and the Chipmunks 3 (2011) CAMRipCz



Csfd:44%


FastShare.cz: Milióny súborov na stiahnutie zadarmo alebo neobmedzenou rýchlosťou 140 GB za € 4!





Stiahnut subor : Link na stiahnutie sa zobrazi az po zaregistrovani a prihlaseni.Zaregistrujte sa pre plnohodnotny pristup a vyuzivanie fora.



Obsah
Tentokrát si naši staří známí vyrážejí užít prázdniny na luxusní výletní loď, kterou svým dováděním během chvíle obrátí naruby. Chimpunkové a Chipettky páchají na parníku, který se stal dočasně jejich hracím hřištěm, jednu lumpárnu za druhou a zpestřují tak prázdniny nejen sobě, ale i všem ostatním pasažérům. Veškerá legrace ale končí ve chvíli, kdy ztroskotají na opuštěném ostrově, ze kterého, jak se zdá, není úniku. Brzy se ale ukáže, že ostrov není tak opuštěný, jak to na první pohled vypadalo. Alvin a jeho přátelé potkávají nového kamaráda, se kterým se vydávají na dobrodružné putování po ostrově, na jehož konci je čeká velké překvapení.

Info
File Name : Alvin.a.ChipmunkoveFP.avi
File Size : 988 Mb.

[Movie]
Valid : Yes [AVI]
Duration : 01:18:43
Movie complete : Yes

[Video]
Resolution : 680x368
Codec : XviD MPEG-4 codec
FPS : 29.97
BitRate : 1626 Kbps
Quality Factor : 0.22 b/px

[Audio]
Codec : MPEG 1 or 2 Audio Layer 3 (MP3)
Number of channels : 2
Sample Rate : 44100 Hz
BitRate : 128 Kbps

Jazyk:Cz

Screens




Download:




FastShare.cz: Milióny súborov na stiahnutie zadarmo alebo neobmedzenou rýchlosťou 140 GB za € 4!





Stiahnut subor : Link na stiahnutie sa zobrazi az po zaregistrovani a prihlaseni.Zaregistrujte sa pre plnohodnotny pristup a vyuzivanie fora.



Bez hesla
Návrat hore
Zobrazit informácie o autorovi Odoslať súkromnú správu

wojto7
Prispievateľ
Prispievateľ


User is Offline

Založený: 24 január 2011

Príspevky: 160

Poďakovaní : 16 v 9 príspevkoch


Reputácia :

69.2

PríspevokZaslal: Ne január 08, 2012 5:21 pm    Predmet: Odpovedať s citátom



Alvin a Chipmunkové 3 / Alvin and the Chipmunks 3 (2011) CZ
Alvin.a.Chipmunkove.3.2011.CAMRip.CZ









FastShare.cz: Milióny súborov na stiahnutie zadarmo alebo neobmedzenou rýchlosťou 140 GB za € 4!





Stiahnut subor : Link na stiahnutie sa zobrazi az po zaregistrovani a prihlaseni.Zaregistrujte sa pre plnohodnotny pristup a vyuzivanie fora.





USA, 2011
Režie:Mike Mitchell
Hudba:Mark Mothersbaugh
Hrají:
Jason Lee, Matthew Gray Gubler, Amy Poehler, Jesse McCartney, Anna Faris, Christina Applegate, Alyssa Milano, Justin Long, Luisa D´Oliveira, David Cross, Jenny Slate

Tentokrát si naši staří známí vyrážejí užít prázdniny na luxusní výletní loď, kterou svým dováděním během chvíle obrátí naruby. Chimpunkové a Chipettky páchají na parníku, který se stal dočasně jejich hracím hřištěm, jednu lumpárnu za druhou a zpestřují tak prázdniny nejen sobě, ale i všem ostatním pasažérům. Veškerá legrace ale končí ve chvíli, kdy ztroskotají na opuštěném ostrově, ze kterého, jak se zdá, není úniku. Brzy se ale ukáže, že ostrov není tak opuštěný, jak to na první pohled vypadalo. Alvin a jeho přátelé potkávají nového kamaráda, se kterým se vydávají na dobrodružné putování po ostrově, na jehož konci je čeká velké překvapení.

citácia:
Trvanie : 01:18:43
Video:
Rozlíšenie : 680x368
Kodek : XviD MPEG-4 codec
FPS : 29.97
BitRate : 1626 Kbps
Quality Factor : 0.22 b/px
Audio:
Kodek : MPEG 1 or 2 Audio Layer 3 (MP3)
Počet kanálov : 2
Sample Rate : 44100 Hz
BitRate : 128 Kbps







FastShare.cz: Milióny súborov na stiahnutie zadarmo alebo neobmedzenou rýchlosťou 140 GB za € 4!





Stiahnut subor : Link na stiahnutie sa zobrazi az po zaregistrovani a prihlaseni.Zaregistrujte sa pre plnohodnotny pristup a vyuzivanie fora.

Návrat hore
Zobrazit informácie o autorovi Odoslať súkromnú správu

Daskovil
Top Prispievateľ
Top Prispievateľ


User is Offline

Založený: 13 február 2010

Príspevky: 344

Poďakovaní : 51 v 26 príspevkoch


Reputácia :

132.1

Hlasovalo : 1

PríspevokZaslal: Ne január 08, 2012 8:44 pm    Predmet: Odpovedať s citátom

Alvin a Chipmunkové 3 / Alvin and the Chipmunks 3 (2011)



InFo:

Animovaný / Komedie / Rodinný / Hudební

USA, 2011, 87 min
Režie:
Mike Mitchell
Hudba:
Mark Mothersbaugh
Hrají:
Jason Lee, Matthew Gray Gubler, Amy Poehler, Jesse McCartney, Anna Faris, Christina Applegate, Alyssa Milano, Justin Long, Luisa D´Oliveira, David Cross, Jenny Slate

Obsah:

Tentokrát si naši staří známí vyrážejí užít prázdniny na luxusní výletní loď, kterou svým dováděním během chvíle obrátí naruby. Chimpunkové a Chipettky páchají na parníku, který se stal dočasně jejich hracím hřištěm, jednu lumpárnu za druhou a zpestřují tak prázdniny nejen sobě, ale i všem ostatním pasažérům. Veškerá legrace ale končí ve chvíli, kdy ztroskotají na opuštěném ostrově, ze kterého, jak se zdá, není úniku. Brzy se ale ukáže, že ostrov není tak opuštěný, jak to na první pohled vypadalo. Alvin a jeho přátelé potkávají nového kamaráda, se kterým se vydávají na dobrodružné putování po ostrově, na jehož konci je čeká velké překvapení.

Kvalita:



FastShare.cz: Milióny súborov na stiahnutie zadarmo alebo neobmedzenou rýchlosťou 140 GB za € 4!





Stiahnut subor : Link na stiahnutie sa zobrazi az po zaregistrovani a prihlaseni.Zaregistrujte sa pre plnohodnotny pristup a vyuzivanie fora.



CSFD:



FastShare.cz: Milióny súborov na stiahnutie zadarmo alebo neobmedzenou rýchlosťou 140 GB za € 4!





Stiahnut subor : Link na stiahnutie sa zobrazi az po zaregistrovani a prihlaseni.Zaregistrujte sa pre plnohodnotny pristup a vyuzivanie fora.



DownLoad:
Alvin.a.Chipmunkove.3.2011.CAMRip.CZ

#1:


FastShare.cz: Milióny súborov na stiahnutie zadarmo alebo neobmedzenou rýchlosťou 140 GB za € 4!





Stiahnut subor : Link na stiahnutie sa zobrazi az po zaregistrovani a prihlaseni.Zaregistrujte sa pre plnohodnotny pristup a vyuzivanie fora.



#2:


FastShare.cz: Milióny súborov na stiahnutie zadarmo alebo neobmedzenou rýchlosťou 140 GB za € 4!





Stiahnut subor : Link na stiahnutie sa zobrazi az po zaregistrovani a prihlaseni.Zaregistrujte sa pre plnohodnotny pristup a vyuzivanie fora.



#3:


FastShare.cz: Milióny súborov na stiahnutie zadarmo alebo neobmedzenou rýchlosťou 140 GB za € 4!





Stiahnut subor : Link na stiahnutie sa zobrazi az po zaregistrovani a prihlaseni.Zaregistrujte sa pre plnohodnotny pristup a vyuzivanie fora.



#4:


FastShare.cz: Milióny súborov na stiahnutie zadarmo alebo neobmedzenou rýchlosťou 140 GB za € 4!





Stiahnut subor : Link na stiahnutie sa zobrazi az po zaregistrovani a prihlaseni.Zaregistrujte sa pre plnohodnotny pristup a vyuzivanie fora.



#5:


FastShare.cz: Milióny súborov na stiahnutie zadarmo alebo neobmedzenou rýchlosťou 140 GB za € 4!





Stiahnut subor : Link na stiahnutie sa zobrazi az po zaregistrovani a prihlaseni.Zaregistrujte sa pre plnohodnotny pristup a vyuzivanie fora.



#6:


FastShare.cz: Milióny súborov na stiahnutie zadarmo alebo neobmedzenou rýchlosťou 140 GB za € 4!





Stiahnut subor : Link na stiahnutie sa zobrazi az po zaregistrovani a prihlaseni.Zaregistrujte sa pre plnohodnotny pristup a vyuzivanie fora.



Pass:


FastShare.cz: Milióny súborov na stiahnutie zadarmo alebo neobmedzenou rýchlosťou 140 GB za € 4!





Stiahnut subor : Link na stiahnutie sa zobrazi az po zaregistrovani a prihlaseni.Zaregistrujte sa pre plnohodnotny pristup a vyuzivanie fora.

Návrat hore
Zobrazit informácie o autorovi Odoslať súkromnú správu

Robinko
Excellent User
Excellent User


User is Offline

Založený: 02 marec 2008
Bydlisko: Bratislava
Príspevky: 1152

Poďakovaní : 112 v 91 príspevkoch


Reputácia :

301.2

Hlasovalo : 2

PríspevokZaslal: Ne január 08, 2012 9:04 pm    Predmet: Odpovedať s citátom

Alvin a Chipmunkovia 3 / Alvin and the Chipmunks 3 (2011)







FastShare.cz: Milióny súborov na stiahnutie zadarmo alebo neobmedzenou rýchlosťou 140 GB za € 4!





Stiahnut subor : Link na stiahnutie sa zobrazi az po zaregistrovani a prihlaseni.Zaregistrujte sa pre plnohodnotny pristup a vyuzivanie fora.





citácia:
Animovaný, rodinný, komédia, hudobný
USA, 2011, 87 min
CZ dabing, CamRip

Format : AVI at 1 754 Kbps
Length : 988 MiB for 1h 18mn 43s 252ms

Video #0 : MPEG-4 Visual at 1 614 Kbps
Aspect : 680 x 368 (1.848) at 29.970 fps

Audio #0 : MPEG Audio at 128 Kbps
Infos : 2 kanály, 44,1 KHz




Tentokrát si naši staří známí vyrážejí užít prázdniny na luxusní výletní loď, kterou svým dováděním během chvíle obrátí naruby. Chimpunkové a Chipettky páchají na parníku, který se stal dočasně jejich hracím hřištěm, jednu lumpárnu za druhou a zpestřují tak prázdniny nejen sobě, ale i všem ostatním pasažérům. Veškerá legrace ale končí ve chvíli, kdy ztroskotají na opuštěném ostrově, ze kterého, jak se zdá, není úniku. Brzy se ale ukáže, že ostrov není tak opuštěný, jak to na první pohled vypadalo. Alvin a jeho přátelé potkávají nového kamaráda, se kterým se vydávají na dobrodružné putování po ostrově, na jehož konci je čeká velké překvapení.





FastShare.cz: Milióny súborov na stiahnutie zadarmo alebo neobmedzenou rýchlosťou 140 GB za € 4!





Stiahnut subor : Link na stiahnutie sa zobrazi az po zaregistrovani a prihlaseni.Zaregistrujte sa pre plnohodnotny pristup a vyuzivanie fora.




FastShare.cz: Milióny súborov na stiahnutie zadarmo alebo neobmedzenou rýchlosťou 140 GB za € 4!





Stiahnut subor : Link na stiahnutie sa zobrazi az po zaregistrovani a prihlaseni.Zaregistrujte sa pre plnohodnotny pristup a vyuzivanie fora.


_________________
Všetky uploady sú moje a sú bez hesla, reup nerobím, poďakovanie poteší...
Návrat hore
Zobrazit informácie o autorovi Odoslať súkromnú správu Odoslať e-mail MSN Messenger

camejko
Top Prispievateľ
Top Prispievateľ


User is Offline

Založený: 15 júl 2008

Príspevky: 280

Poďakovaní : 24 v 19 príspevkoch


Reputácia :

181.4

PríspevokZaslal: Ne január 08, 2012 11:06 pm    Predmet: Odpovedať s citátom

Alvin a Chipmunkové | CZE | 2011 | Alvin a Chipmunkové 3, 2011 XviD CZ dabing



=[iNFO & QUALiTY]=

General

Format : AVI
Format/Info : Audio Video Interleave
File size : 988 MiB
Duration : 1h 18mn
Overall bit rate : 1 754 Kbps
Writing application : VirtualDubMod 1.5.10.2 (build 2540/release)
Writing library : VirtualDubMod build 2540/release

Video

ID : 0
Format : MPEG-4 Visual
Format profile : Advanced Simple@L5
Format settings, BVOP : Yes
Format settings, QPel : No
Format settings, GMC : No warppoints
Format settings, Matrix : Default (H.263)
Muxing mode : Packed bitstream
Codec ID : XVID
Codec ID/Hint : XviD
Duration : 1h 18mn
Bit rate : 1 614 Kbps
Width : 680 pixels
Height : 368 pixels
Display aspect ratio : 16:9
Frame rate : 29.970 fps
Color space : YUV
Chroma subsampling : 4:2:0
Bit depth : 8 bits
Scan type : Progressive
Compression mode : Lossy
Bits/(Pixel*Frame) : 0.215
Stream size : 909 MiB (92%)
Writing library : XviD 64

Audio

ID : 1
Format : MPEG Audio
Format version : Version 1
Format profile : Layer 3
Mode : Joint stereo
Mode extension : MS Stereo
Codec ID : 55
Codec ID/Hint : MP3
Duration : 1h 18mn
Bit rate mode : Constant
Bit rate : 128 Kbps
Channel(s) : 2 channels
Sampling rate : 44.1 KHz
Compression mode : Lossy
Stream size : 72.1 MiB (7%)
Alignment : Split accross interleaves
Interleave, duration : 33 ms (1.00 video frame)
Interleave, preload duration : 500 ms



=[IMDB]=


FastShare.cz: Milióny súborov na stiahnutie zadarmo alebo neobmedzenou rýchlosťou 140 GB za € 4!





Stiahnut subor : Link na stiahnutie sa zobrazi az po zaregistrovani a prihlaseni.Zaregistrujte sa pre plnohodnotny pristup a vyuzivanie fora.




------------------------
Playing around while aboard a cruise ship, the Chipmunks and Chipettes accidentally go overboard and end up marooned in a tropical paradise. They discover their new turf is not as deserted as it seems.

=[Screens]=


FastShare.cz: Milióny súborov na stiahnutie zadarmo alebo neobmedzenou rýchlosťou 140 GB za € 4!





Stiahnut subor : Link na stiahnutie sa zobrazi az po zaregistrovani a prihlaseni.Zaregistrujte sa pre plnohodnotny pristup a vyuzivanie fora.



=[Download]=
=[2000 MB SPLiT FiLES]=
=[HELLSHARE]=


FastShare.cz: Milióny súborov na stiahnutie zadarmo alebo neobmedzenou rýchlosťou 140 GB za € 4!





Stiahnut subor : Link na stiahnutie sa zobrazi az po zaregistrovani a prihlaseni.Zaregistrujte sa pre plnohodnotny pristup a vyuzivanie fora.





=[Bez Hesla / No Password]=

=[Enjoy with camejko]=
Návrat hore
Zobrazit informácie o autorovi Odoslať súkromnú správu

pista11
Excellent User
Excellent User


User is Offline

Založený: 13 august 2009

Príspevky: 906

Poďakovaní : 203 v 117 príspevkoch


Reputácia :

290.4

Hlasovalo : 10

PríspevokZaslal: Po január 09, 2012 12:01 am    Predmet: Odpovedať s citátom


Alvin a Chipmunkové 3 / Alvin and the Chipmunks 3 (2011)

CZ dabing! / CAM rip (na kamerový rip VÝBORNÁ KVALITA, oplatí sa stiahnúť)! / Velkosť: 988 MB! / Dľžka: 01:18:43 / Sťahuj len 1 link ZADARMO (na 3 serveroch)!


Alvin.a.Chipmunkove.3.2011.CAMRip.CZ







FastShare.cz: Milióny súborov na stiahnutie zadarmo alebo neobmedzenou rýchlosťou 140 GB za € 4!





Stiahnut subor : Link na stiahnutie sa zobrazi az po zaregistrovani a prihlaseni.Zaregistrujte sa pre plnohodnotny pristup a vyuzivanie fora.





Veľkosť súboru : 988 MB

[Film]
Platnosť : Ano [AVI]
Trvanie : 01:18:43
Kompletný film : Ano

[Video]
Rozlíšenie : 680x368
Kodek : XviD MPEG-4 codec
FPS : 29.97
BitRate : 1626 Kbps
Quality Factor : 0.22 b/px

[Audio]
Kodek : MPEG 1 or 2 Audio Layer 3 (MP3)
Počet kanálov : 2
Sample Rate : 44100 Hz
BitRate : 128 Kbps





FastShare.cz: Milióny súborov na stiahnutie zadarmo alebo neobmedzenou rýchlosťou 140 GB za € 4!





Stiahnut subor : Link na stiahnutie sa zobrazi az po zaregistrovani a prihlaseni.Zaregistrujte sa pre plnohodnotny pristup a vyuzivanie fora.






FastShare.cz: Milióny súborov na stiahnutie zadarmo alebo neobmedzenou rýchlosťou 140 GB za € 4!





Stiahnut subor : Link na stiahnutie sa zobrazi az po zaregistrovani a prihlaseni.Zaregistrujte sa pre plnohodnotny pristup a vyuzivanie fora.






FastShare.cz: Milióny súborov na stiahnutie zadarmo alebo neobmedzenou rýchlosťou 140 GB za € 4!





Stiahnut subor : Link na stiahnutie sa zobrazi az po zaregistrovani a prihlaseni.Zaregistrujte sa pre plnohodnotny pristup a vyuzivanie fora.








citácia:
AVI súbor!
Nahrávané na 3 serveri! Pri väčšom počte linkov sú linky medzi servermi kombinovateľné!
Ďakujem poteší ;)

_________________
Predaj kreditov na share-rapid.com a czshare.com! Ceny dohodou!

Pre viac info piste SS.
Návrat hore
Zobrazit informácie o autorovi Odoslať súkromnú správu

ENTURE01
Prispievateľ
Prispievateľ


User is Offline

Založený: 19 júl 2011

Príspevky: 99

Poďakovaní : 8 v 6 príspevkoch


Reputácia :

35.3

PríspevokZaslal: Po január 09, 2012 2:50 pm    Predmet: Odpovedať s citátom

Alvin a Chipmunkové 3 / Alvin and the Chipmunks 3 (2011)
Release: Alvin.a.Chipmunkove.3.2011.CAMRip.CZ




CSFD:


FastShare.cz: Milióny súborov na stiahnutie zadarmo alebo neobmedzenou rýchlosťou 140 GB za € 4!





Stiahnut subor : Link na stiahnutie sa zobrazi az po zaregistrovani a prihlaseni.Zaregistrujte sa pre plnohodnotny pristup a vyuzivanie fora.




Animovaný / Komedie / Rodinný / Hudební

USA, 2011
Režie:
Mike Mitchell
Hudba:
Mark Mothersbaugh
Hrají:
Jason Lee, Matthew Gray Gubler, Amy Poehler, Jesse McCartney, Anna Faris, Christina Applegate, Alyssa Milano, Justin Long, Luisa D´Oliveira, David Cross, Jenny Slate



INFO:


FastShare.cz: Milióny súborov na stiahnutie zadarmo alebo neobmedzenou rýchlosťou 140 GB za € 4!





Stiahnut subor : Link na stiahnutie sa zobrazi az po zaregistrovani a prihlaseni.Zaregistrujte sa pre plnohodnotny pristup a vyuzivanie fora.




DOWNLOAD:
HELLSHARE:


FastShare.cz: Milióny súborov na stiahnutie zadarmo alebo neobmedzenou rýchlosťou 140 GB za € 4!





Stiahnut subor : Link na stiahnutie sa zobrazi az po zaregistrovani a prihlaseni.Zaregistrujte sa pre plnohodnotny pristup a vyuzivanie fora.


SHARERAPID


FastShare.cz: Milióny súborov na stiahnutie zadarmo alebo neobmedzenou rýchlosťou 140 GB za € 4!





Stiahnut subor : Link na stiahnutie sa zobrazi az po zaregistrovani a prihlaseni.Zaregistrujte sa pre plnohodnotny pristup a vyuzivanie fora.

Návrat hore
Zobrazit informácie o autorovi Odoslať súkromnú správu

GABITAMI
Gold User
Gold User


User is Offline

Založený: 04 apríl 2008

Príspevky: 1543

Poďakovaní : 102 v 94 príspevkoch


Reputácia :

301.8

Hlasovalo : 4

PríspevokZaslal: Po január 09, 2012 4:26 pm    Predmet: Odpovedať s citátom

Alvin a Chipmunkové 3 / Alvin and the Chipmunks 3 (2011)
Rel:Alvin.a.Chipmunkove.3.2011.CAMRip.CZ






FastShare.cz: Milióny súborov na stiahnutie zadarmo alebo neobmedzenou rýchlosťou 140 GB za € 4!





Stiahnut subor : Link na stiahnutie sa zobrazi az po zaregistrovani a prihlaseni.Zaregistrujte sa pre plnohodnotny pristup a vyuzivanie fora.




Animovaný / Komedie / Rodinný / Hudební

USA, 2011
Režie:Mike Mitchell
Hudba:Mark Mothersbaugh
Hrají:
Jason Lee, Matthew Gray Gubler, Amy Poehler, Jesse McCartney, Anna Faris, Christina Applegate, Alyssa Milano, Justin Long, Luisa D´Oliveira, David Cross, Jenny Slate


Tentokrát si naši staří známí vyrážejí užít prázdniny na luxusní výletní loď, kterou svým dováděním během chvíle obrátí naruby. Chimpunkové a Chipettky páchají na parníku, který se stal dočasně jejich hracím hřištěm, jednu lumpárnu za druhou a zpestřují tak prázdniny nejen sobě, ale i všem ostatním pasažérům. Veškerá legrace ale končí ve chvíli, kdy ztroskotají na opuštěném ostrově, ze kterého, jak se zdá, není úniku. Brzy se ale ukáže, že ostrov není tak opuštěný, jak to na první pohled vypadalo. Alvin a jeho přátelé potkávají nového kamaráda, se kterým se vydávají na dobrodružné putování po ostrově, na jehož konci je čeká velké překvapení.


KVALITA:
Size : 988 MB


FastShare.cz: Milióny súborov na stiahnutie zadarmo alebo neobmedzenou rýchlosťou 140 GB za € 4!





Stiahnut subor : Link na stiahnutie sa zobrazi az po zaregistrovani a prihlaseni.Zaregistrujte sa pre plnohodnotny pristup a vyuzivanie fora.




SCREENSHOTS:




DOWNLOAD:



FastShare.cz: Milióny súborov na stiahnutie zadarmo alebo neobmedzenou rýchlosťou 140 GB za € 4!





Stiahnut subor : Link na stiahnutie sa zobrazi az po zaregistrovani a prihlaseni.Zaregistrujte sa pre plnohodnotny pristup a vyuzivanie fora.





FastShare.cz: Milióny súborov na stiahnutie zadarmo alebo neobmedzenou rýchlosťou 140 GB za € 4!





Stiahnut subor : Link na stiahnutie sa zobrazi az po zaregistrovani a prihlaseni.Zaregistrujte sa pre plnohodnotny pristup a vyuzivanie fora.





FastShare.cz: Milióny súborov na stiahnutie zadarmo alebo neobmedzenou rýchlosťou 140 GB za € 4!





Stiahnut subor : Link na stiahnutie sa zobrazi az po zaregistrovani a prihlaseni.Zaregistrujte sa pre plnohodnotny pristup a vyuzivanie fora.

Návrat hore
Zobrazit informácie o autorovi Odoslať súkromnú správu

-MiReC-
ourphorum ELITA
ourphorum ELITA


User is Offline

Založený: 11 apríl 2010

Príspevky: 2492

Poďakovaní : 237 v 215 príspevkoch


Reputácia :

427.5

Hlasovalo : 6

PríspevokZaslal: Po január 09, 2012 5:40 pm    Predmet: Odpovedať s citátom



Alvin a Chipmunkové 3 / Alvin and the Chipmunks 3 (2011) CZ
Alvin.a.Chipmunkove.3.2011.CAMRip.CZ






FastShare.cz: Milióny súborov na stiahnutie zadarmo alebo neobmedzenou rýchlosťou 140 GB za € 4!





Stiahnut subor : Link na stiahnutie sa zobrazi az po zaregistrovani a prihlaseni.Zaregistrujte sa pre plnohodnotny pristup a vyuzivanie fora.




Animovaný / Komedie / Rodinný / Hudební
USA, 2011, 87 min
Režie:Mike Mitchell
Hudba:Mark Mothersbaugh
Hrají:Jason Lee, Matthew Gray Gubler, Amy Poehler, Jesse McCartney, Anna Faris, Christina Applegate, Alyssa Milano, Justin Long, Luisa D´Oliveira, David Cross, Jenny Slate


Tentokrát si naši staří známí vyrážejí užít prázdniny na luxusní výletní loď, kterou svým dováděním během chvíle obrátí naruby. Chimpunkové a Chipettky páchají na parníku, který se stal dočasně jejich hracím hřištěm, jednu lumpárnu za druhou a zpestřují tak prázdniny nejen sobě, ale i všem ostatním pasažérům. Veškerá legrace ale končí ve chvíli, kdy ztroskotají na opuštěném ostrově, ze kterého, jak se zdá, není úniku. Brzy se ale ukáže, že ostrov není tak opuštěný, jak to na první pohled vypadalo. Alvin a jeho přátelé potkávají nového kamaráda, se kterým se vydávají na dobrodružné putování po ostrově, na jehož konci je čeká velké překvapení.




FastShare.cz: Milióny súborov na stiahnutie zadarmo alebo neobmedzenou rýchlosťou 140 GB za € 4!





Stiahnut subor : Link na stiahnutie sa zobrazi az po zaregistrovani a prihlaseni.Zaregistrujte sa pre plnohodnotny pristup a vyuzivanie fora.






FastShare.cz: Milióny súborov na stiahnutie zadarmo alebo neobmedzenou rýchlosťou 140 GB za € 4!





Stiahnut subor : Link na stiahnutie sa zobrazi az po zaregistrovani a prihlaseni.Zaregistrujte sa pre plnohodnotny pristup a vyuzivanie fora.





FastShare.cz: Milióny súborov na stiahnutie zadarmo alebo neobmedzenou rýchlosťou 140 GB za € 4!





Stiahnut subor : Link na stiahnutie sa zobrazi az po zaregistrovani a prihlaseni.Zaregistrujte sa pre plnohodnotny pristup a vyuzivanie fora.





FastShare.cz: Milióny súborov na stiahnutie zadarmo alebo neobmedzenou rýchlosťou 140 GB za € 4!





Stiahnut subor : Link na stiahnutie sa zobrazi az po zaregistrovani a prihlaseni.Zaregistrujte sa pre plnohodnotny pristup a vyuzivanie fora.





FastShare.cz: Milióny súborov na stiahnutie zadarmo alebo neobmedzenou rýchlosťou 140 GB za € 4!





Stiahnut subor : Link na stiahnutie sa zobrazi az po zaregistrovani a prihlaseni.Zaregistrujte sa pre plnohodnotny pristup a vyuzivanie fora.





FastShare.cz: Milióny súborov na stiahnutie zadarmo alebo neobmedzenou rýchlosťou 140 GB za € 4!





Stiahnut subor : Link na stiahnutie sa zobrazi az po zaregistrovani a prihlaseni.Zaregistrujte sa pre plnohodnotny pristup a vyuzivanie fora.





FastShare.cz: Milióny súborov na stiahnutie zadarmo alebo neobmedzenou rýchlosťou 140 GB za € 4!





Stiahnut subor : Link na stiahnutie sa zobrazi az po zaregistrovani a prihlaseni.Zaregistrujte sa pre plnohodnotny pristup a vyuzivanie fora.





FastShare.cz: Milióny súborov na stiahnutie zadarmo alebo neobmedzenou rýchlosťou 140 GB za € 4!





Stiahnut subor : Link na stiahnutie sa zobrazi az po zaregistrovani a prihlaseni.Zaregistrujte sa pre plnohodnotny pristup a vyuzivanie fora.





FastShare.cz: Milióny súborov na stiahnutie zadarmo alebo neobmedzenou rýchlosťou 140 GB za € 4!





Stiahnut subor : Link na stiahnutie sa zobrazi az po zaregistrovani a prihlaseni.Zaregistrujte sa pre plnohodnotny pristup a vyuzivanie fora.





FastShare.cz: Milióny súborov na stiahnutie zadarmo alebo neobmedzenou rýchlosťou 140 GB za € 4!





Stiahnut subor : Link na stiahnutie sa zobrazi az po zaregistrovani a prihlaseni.Zaregistrujte sa pre plnohodnotny pristup a vyuzivanie fora.





FastShare.cz: Milióny súborov na stiahnutie zadarmo alebo neobmedzenou rýchlosťou 140 GB za € 4!





Stiahnut subor : Link na stiahnutie sa zobrazi az po zaregistrovani a prihlaseni.Zaregistrujte sa pre plnohodnotny pristup a vyuzivanie fora.




_________________
Návrat hore
Zobrazit informácie o autorovi Odoslať súkromnú správu

OnlinePetulo
Power User
Power User


User is Offline

Založený: 01 január 2009

Príspevky: 606

Poďakovaní : 45 v 34 príspevkoch


Reputácia :

213.4

PríspevokZaslal: Ut január 10, 2012 9:08 am    Predmet: Odpovedať s citátom

Alvin a Chipmunkové 3


Tentokrát si naši staří známí vyrážejí užít prázdniny na luxusní výletní loď, kterou svým dováděním během chvíle obrátí naruby. Chimpunkové a Chipettky páchají na parníku, který se stal dočasně jejich hracím hřištěm, jednu lumpárnu za druhou a zpestřují tak prázdniny nejen sobě, ale i všem ostatním pasažérům. Veškerá legrace ale končí ve chvíli, kdy ztroskotají na opuštěném ostrově, ze kterého, jak se zdá, není úniku. Brzy se ale ukáže, že ostrov není tak opuštěný, jak to na první pohled vypadalo. Alvin a jeho přátelé potkávají nového kamaráda, se kterým se vydávají na dobrodružné putování po ostrově, na jehož konci je čeká velké překvapení.




FastShare.cz: Milióny súborov na stiahnutie zadarmo alebo neobmedzenou rýchlosťou 140 GB za € 4!





Stiahnut subor : Link na stiahnutie sa zobrazi az po zaregistrovani a prihlaseni.Zaregistrujte sa pre plnohodnotny pristup a vyuzivanie fora.






FastShare.cz: Milióny súborov na stiahnutie zadarmo alebo neobmedzenou rýchlosťou 140 GB za € 4!





Stiahnut subor : Link na stiahnutie sa zobrazi az po zaregistrovani a prihlaseni.Zaregistrujte sa pre plnohodnotny pristup a vyuzivanie fora.

Návrat hore
Zobrazit informácie o autorovi Odoslať súkromnú správu

Herrynek
Prispievateľ
Prispievateľ


User is Offline

Založený: 12 júl 2011

Príspevky: 66

Poďakovaní : 1 v 1 príspevkoch


Reputácia :

31.5

PríspevokZaslal: Ut január 10, 2012 9:27 am    Predmet: Odpovedať s citátom


Alvin a Chipmunkové 3 / Alvin and the Chipmunks 3 (2011)


Alvin.a.Chipmunkove.3.2011.CAMRip.CZ







FastShare.cz: Milióny súborov na stiahnutie zadarmo alebo neobmedzenou rýchlosťou 140 GB za € 4!





Stiahnut subor : Link na stiahnutie sa zobrazi az po zaregistrovani a prihlaseni.Zaregistrujte sa pre plnohodnotny pristup a vyuzivanie fora.






FastShare.cz: Milióny súborov na stiahnutie zadarmo alebo neobmedzenou rýchlosťou 140 GB za € 4!





Stiahnut subor : Link na stiahnutie sa zobrazi az po zaregistrovani a prihlaseni.Zaregistrujte sa pre plnohodnotny pristup a vyuzivanie fora.









FastShare.cz: Milióny súborov na stiahnutie zadarmo alebo neobmedzenou rýchlosťou 140 GB za € 4!





Stiahnut subor : Link na stiahnutie sa zobrazi az po zaregistrovani a prihlaseni.Zaregistrujte sa pre plnohodnotny pristup a vyuzivanie fora.



Návrat hore
Zobrazit informácie o autorovi Odoslať súkromnú správu

skelq
Top Prispievateľ
Top Prispievateľ


User is Offline

Založený: 31 júl 2009

Príspevky: 223

Poďakovaní : 37 v 13 príspevkoch


Reputácia :

107.2

Hlasovalo : 1

PríspevokZaslal: Ut január 10, 2012 3:14 pm    Predmet: Odpovedať s citátom

Alvin a Chipmunkové 3 / Alvin and the Chipmunks 3 (2011) CZ
Alvin.a.Chipmunkove.3.2011.CAMRip.CZ

CSFD
http://www.csfd.cz/film/282379-alvin-a-chipmunkove-3/

Size: 715.1 MiB
Genre: Animovaný / Komedie / Rodinný / Hudební
Runtime: 1h 18mn 43s
Video: 680x368 /1 129 Kbps/29.970 fps
Audio:


Hellshare


FastShare.cz: Milióny súborov na stiahnutie zadarmo alebo neobmedzenou rýchlosťou 140 GB za € 4!





Stiahnut subor : Link na stiahnutie sa zobrazi az po zaregistrovani a prihlaseni.Zaregistrujte sa pre plnohodnotny pristup a vyuzivanie fora.



zaznam pre opravu dat 3%
Návrat hore
Zobrazit informácie o autorovi Odoslať súkromnú správu

Produkt23
Prispievateľ
Prispievateľ


User is Offline

Založený: 21 máj 2009

Príspevky: 61

Poďakovaní : 0 v 0 príspevkoch


Reputácia :

24.4

PríspevokZaslal: Pi január 13, 2012 11:19 pm    Predmet: Odpovedať s citátom

Alvin and the Chipmunks 3 / Alvin a Chipmunkové 3 (2011) CZ



INFO:



FastShare.cz: Milióny súborov na stiahnutie zadarmo alebo neobmedzenou rýchlosťou 140 GB za € 4!





Stiahnut subor : Link na stiahnutie sa zobrazi az po zaregistrovani a prihlaseni.Zaregistrujte sa pre plnohodnotny pristup a vyuzivanie fora.





FastShare.cz: Milióny súborov na stiahnutie zadarmo alebo neobmedzenou rýchlosťou 140 GB za € 4!





Stiahnut subor : Link na stiahnutie sa zobrazi az po zaregistrovani a prihlaseni.Zaregistrujte sa pre plnohodnotny pristup a vyuzivanie fora.



DOWNLOAD:



FastShare.cz: Milióny súborov na stiahnutie zadarmo alebo neobmedzenou rýchlosťou 140 GB za € 4!





Stiahnut subor : Link na stiahnutie sa zobrazi az po zaregistrovani a prihlaseni.Zaregistrujte sa pre plnohodnotny pristup a vyuzivanie fora.

Návrat hore
Zobrazit informácie o autorovi Odoslať súkromnú správu

wojto7
Prispievateľ
Prispievateľ


User is Offline

Založený: 24 január 2011

Príspevky: 160

Poďakovaní : 16 v 9 príspevkoch


Reputácia :

69.2

PríspevokZaslal: Po január 16, 2012 10:50 pm    Predmet: Odpovedať s citátom



Alvin a Chipmunkové 3 / Alvin and the Chipmunks 3 (2011) CZ
Alvin.a.Chipmunkove.3.2011.CAMRip.CZ









FastShare.cz: Milióny súborov na stiahnutie zadarmo alebo neobmedzenou rýchlosťou 140 GB za € 4!





Stiahnut subor : Link na stiahnutie sa zobrazi az po zaregistrovani a prihlaseni.Zaregistrujte sa pre plnohodnotny pristup a vyuzivanie fora.





USA, 2011
Režie:Mike Mitchell
Hudba:Mark Mothersbaugh
Hrají:
Jason Lee, Matthew Gray Gubler, Amy Poehler, Jesse McCartney, Anna Faris, Christina Applegate, Alyssa Milano, Justin Long, Luisa D´Oliveira, David Cross, Jenny Slate

Tentokrát si naši staří známí vyrážejí užít prázdniny na luxusní výletní loď, kterou svým dováděním během chvíle obrátí naruby. Chimpunkové a Chipettky páchají na parníku, který se stal dočasně jejich hracím hřištěm, jednu lumpárnu za druhou a zpestřují tak prázdniny nejen sobě, ale i všem ostatním pasažérům. Veškerá legrace ale končí ve chvíli, kdy ztroskotají na opuštěném ostrově, ze kterého, jak se zdá, není úniku. Brzy se ale ukáže, že ostrov není tak opuštěný, jak to na první pohled vypadalo. Alvin a jeho přátelé potkávají nového kamaráda, se kterým se vydávají na dobrodružné putování po ostrově, na jehož konci je čeká velké překvapení.

citácia:
Trvanie : 01:18:43
Video:
Rozlíšenie : 680x368
Kodek : XviD MPEG-4 codec
FPS : 29.97
BitRate : 1626 Kbps
Quality Factor : 0.22 b/px
Audio:
Kodek : MPEG 1 or 2 Audio Layer 3 (MP3)
Počet kanálov : 2
Sample Rate : 44100 Hz
BitRate : 128 Kbps







FastShare.cz: Milióny súborov na stiahnutie zadarmo alebo neobmedzenou rýchlosťou 140 GB za € 4!





Stiahnut subor : Link na stiahnutie sa zobrazi az po zaregistrovani a prihlaseni.Zaregistrujte sa pre plnohodnotny pristup a vyuzivanie fora.






FastShare.cz: Milióny súborov na stiahnutie zadarmo alebo neobmedzenou rýchlosťou 140 GB za € 4!





Stiahnut subor : Link na stiahnutie sa zobrazi az po zaregistrovani a prihlaseni.Zaregistrujte sa pre plnohodnotny pristup a vyuzivanie fora.

Návrat hore
Zobrazit informácie o autorovi Odoslať súkromnú správu
Zobraziť príspevky z predchádzajúcich:   
Toto fórum je zamknuté, nemôžete tu písať ani upravovať príspevky!   Táto téma je zamknutá, nemôžete tu pridávať odpovede ani upravovať svoje príspevky!    Obsah fóra www.ourphorum.com -> Archív príspevkov [2011-2014] Časy uvádzané v GMT + 1 hodina
Strana 1 z 1

 
Prejdi na:  
Nemôžete pridávať nové témy do tohto fóra.
Nemôžete odpovedať na témy v tomto fóre.
Nemôžete upravovať svoje príspevky v tomto fóre.
Nemôžete mazať svoje príspevky v tomto fóre.
Nemôžete hlasovať v tomto fóre.