//

IT-technika.SK

Bílý Elephant / Elephant White (2011)

Dabované zahraničné filmy, slovenská a česká produkcia
jazim004
Power User
Power User
 
Príspevky: 704
Registrovaný: Ned Jún 12, 2011 5:35 pm
Has thanked: 0 time
Been thanked: 983 times

Bílý Elephant / Elephant White (2011)

Poslaťod jazim004 » Pon Okt 31, 2011 8:49 am

Elephant.White.2011.BRRip.XviD.CZ-LEADERs

Obrázok

CSFD:

Odkaz na stiahnutie:
Pre zobrazenie odkazov sa musíte alebo


RLS iNFO
Odkaz na stiahnutie:
Pre zobrazenie odkazov sa musíte alebo


Forced

Odkaz na stiahnutie:
Pre zobrazenie odkazov sa musíte alebo


Obrázok

HELLSHARE
Odkaz na stiahnutie:
Pre zobrazenie odkazov sa musíte alebo


SHARE-RAPID
Odkaz na stiahnutie:
Pre zobrazenie odkazov sa musíte alebo


EUROSHARE
Odkaz na stiahnutie:
Pre zobrazenie odkazov sa musíte alebo


NETLOAD
Odkaz na stiahnutie:
Pre zobrazenie odkazov sa musíte alebo


FILESONIC
Odkaz na stiahnutie:
Pre zobrazenie odkazov sa musíte alebo


CZSHARE
Odkaz na stiahnutie:
Pre zobrazenie odkazov sa musíte alebo


-----------------------------------------------------------------------------------

Elephant.White.2011.480p.BRRip.XviD.AC3.CZ.LEADERs

RLS iNFO
Odkaz na stiahnutie:
Pre zobrazenie odkazov sa musíte alebo


Obrázok

HELLSHARE
Odkaz na stiahnutie:
Pre zobrazenie odkazov sa musíte alebo


SHARE-RAPID
Odkaz na stiahnutie:
Pre zobrazenie odkazov sa musíte alebo


EUROSHARE
Odkaz na stiahnutie:
Pre zobrazenie odkazov sa musíte alebo


CZSHARE
Odkaz na stiahnutie:
Pre zobrazenie odkazov sa musíte alebo


NETLOAD
Odkaz na stiahnutie:
Pre zobrazenie odkazov sa musíte alebo


FILESONIC
Odkaz na stiahnutie:
Pre zobrazenie odkazov sa musíte alebo
Naposledy upravil jazim004 dňa Štv Nov 03, 2011 6:52 pm, celkovo upravené 3

lapepa
Gold User
Gold User
 
Príspevky: 1823
Registrovaný: Str Sep 01, 2010 10:44 am
Has thanked: 1 time
Been thanked: 134 times

Poslaťod lapepa » Pon Okt 31, 2011 9:03 am

Bílý Elephant / Elephant White / 2011

Obrázok

Obrázok
Odkaz na stiahnutie:
Pre zobrazenie odkazov sa musíte alebo



Obrázok
GENERAL BRRip
Format : AVI
Format/Info : Audio Video Interleave
File size : 700 MiB
Duration : 1h 31mn
Overall bit rate : 1 070 Kbps
Writing application : VirtualDubMod 1.5.10.2 (build 2540/release)
Writing library : VirtualDubMod build 2540/release

Video
ID : 0
Format : MPEG-4 Visual
Format profile : Advanced Simple@L5
Format settings, BVOP : 2
Format settings, QPel : No
Format settings, GMC : No warppoints
Format settings, Matrix : Default (MPEG)
Codec ID : XVID
Codec ID/Hint : XviD
Duration : 1h 31mn
Bit rate : 933 Kbps
Width : 640 pixels
Height : 272 pixels
Display aspect ratio : 2.35:1
Frame rate : 23.976 fps
Color space : YUV
Chroma subsampling : 4:2:0
Bit depth : 8 bits
Scan type : Progressive
Compression mode : Lossy
Bits/(Pixel*Frame) : 0.223
Stream size : 610 MiB (87%)
Writing library : XviD 1.2.1 (UTC 2008-12-04)

Audio
ID : 1
Format : MPEG Audio
Format version : Version 1
Format profile : Layer 3
Mode : Joint stereo
Mode extension : MS Stereo
Codec ID : 55
Codec ID/Hint : MP3
Duration : 1h 31mn
Bit rate mode : Constant
Bit rate : 128 Kbps
Channel(s) : 2 channels
Sampling rate : 48.0 KHz
Compression mode : Lossy
Delay relative to video : 24ms
Stream size : 83.7 MiB (12%)
Alignment : Aligned on interleaves
Interleave, duration : 42 ms (1.00 video frame)
Interleave, preload duration : 504 ms




Obrázok
Odkaz na stiahnutie:
Pre zobrazenie odkazov sa musíte alebo



Obrázok
Odkaz na stiahnutie:
Pre zobrazenie odkazov sa musíte alebo



Obrázok
Odkaz na stiahnutie:
Pre zobrazenie odkazov sa musíte alebo


Obrázok
GENERAL BRRip 480p
Format : AVI
Format/Info : Audio Video Interleave
File size : 1.44 GiB
Duration : 1h 31mn
Overall bit rate : 2 246 Kbps
Writing application : VirtualDubMod 1.5.10.2 (build 2540/release)
Writing library : VirtualDubMod build 2540/release

Video
ID : 0
Format : MPEG-4 Visual
Format profile : Advanced Simple@L5
Format settings, BVOP : 3
Format settings, QPel : No
Format settings, GMC : No warppoints
Format settings, Matrix : Default (MPEG)
Codec ID : XVID
Codec ID/Hint : XviD
Duration : 1h 31mn
Bit rate : 1 789 Kbps
Width : 720 pixels
Height : 304 pixels
Display aspect ratio : 2.35:1
Frame rate : 23.976 fps
Color space : YUV
Chroma subsampling : 4:2:0
Bit depth : 8 bits
Scan type : Progressive
Compression mode : Lossy
Bits/(Pixel*Frame) : 0.341
Stream size : 1.14 GiB (80%)
Writing library : XviD 62

Audio
ID : 1
Format : AC-3
Format/Info : Audio Coding 3
Mode extension : CM (complete main)
Codec ID : 2000
Duration : 1h 31mn
Bit rate mode : Constant
Bit rate : 448 Kbps
Channel(s) : 6 channels
Channel positions : Front: L C R, Side: L R, LFE
Sampling rate : 48.0 KHz
Bit depth : 16 bits
Compression mode : Lossy
Stream size : 293 MiB (20%)
Alignment : Split accross interleaves
Interleave, duration : 42 ms (1.00 video frame)
Interleave, preload duration : 500 ms



Obrázok
Odkaz na stiahnutie:
Pre zobrazenie odkazov sa musíte alebo




Obrázok
Odkaz na stiahnutie:
Pre zobrazenie odkazov sa musíte alebo


Obrázok
Odkaz na stiahnutie:
Pre zobrazenie odkazov sa musíte alebo
Naposledy upravil lapepa dňa Pon Okt 31, 2011 12:27 pm, celkovo upravené 1

Obrázok užívateľa
shelbygt
ourphorum ELITA
ourphorum ELITA
 
Príspevky: 2349
Registrovaný: Štv Mar 12, 2009 7:32 pm
Has thanked: 12 times
Been thanked: 316 times

Poslaťod shelbygt » Pon Okt 31, 2011 9:26 am

Bílý Elephant / Elephant White (2011)
Rel:Elephant.White.2011.BRRip.XviD.CZ-LEADERs

Obrázok
Jazyk:CZ
Akční / Thriller
USA, 2011
Režie:Prachya Pinkaew
Hrají:Djimon Hounsou, Kevin Bacon
Odkaz
Odkaz na stiahnutie:
Pre zobrazenie odkazov sa musíte alebo

Obsah
Sám proti novodobým otrokářům v Thajsku. Chladnokrevného nájemného zabijáka Curtieho Churche v Bangkoku osloví neznámý zákazník, který mu dobře zaplatí, když zlikviduje členy gangu provozujícího obchod s mladými děvčaty. Kdysi prý unesli jeho dceru a přinutili ji k prostituci. Pro Churche je to práce jako každá jiná, brzy však zjistí, že celá věc je náročnější, než se původně domníval. Zastavit se však už neumí a za svým cílem jde bez milosti, jako by najednou nesnesl pomyšlení, že je ubližováno nevinným. Snad to způsobila i mladičká prostitutka Mae, kter…
INFO
General / Container Stream #1
File Format.......................................AVI
Play Time.........................................1h 31mn
Total File Size...................................700 MiB
Video Stream #1
Frame Width.......................................640 pixels
Frame Height......................................272 pixels
Frame Rate........................................23.976 fps
Display Aspect Ratio..............................2.35:1
Audio Stream #1
Codec.............................................MPEG Audio
Number of Audio Channels..........................2

Odkaz na stiahnutie:
Pre zobrazenie odkazov sa musíte alebo

No Pass

Obrázok užívateľa
Ansambla
ourphorum ELITA
ourphorum ELITA
 
Príspevky: 2270
Registrovaný: Pia Máj 09, 2008 3:57 pm
Bydlisko: Horná potôň
Has thanked: 0 time
Been thanked: 886 times

Poslaťod Ansambla » Pon Okt 31, 2011 9:36 am

Obrázok

Bílý Elephant / Elephant White (2011)
- BRRip, Xvid, CZ, 700 MB


Odkaz na CSFD:
Odkaz na stiahnutie:
Pre zobrazenie odkazov sa musíte alebo


Akční / Thriller
USA, 2011
Režie: Prachya Pinkaew
Hrají: Djimon Hounsou, Kevin Bacon


Obsah:
Sám proti novodobým otrokářům v Thajsku. Chladnokrevného nájemného zabijáka Curtieho Churche v Bangkoku osloví neznámý zákazník, který mu dobře zaplatí, když zlikviduje členy gangu provozujícího obchod s mladými děvčaty. Kdysi prý unesli jeho dceru a přinutili ji k prostituci. Pro Churche je to práce jako každá jiná, brzy však zjistí, že celá věc je náročnější, než se původně domníval. Zastavit se však už neumí a za svým cílem jde bez milosti, jako by najednou nesnesl pomyšlení, že je ubližováno nevinným. Snad to způsobila i mladičká prostitutka Mae, která ho na jeho nebezpečné misi doprovází. Když dívka beze stopy zmizí a Curtie se ji snaží znovu najít, je šokován pravdou o jejím osudu.


Info:
Obraz: Šírka x výška: 640x272 pixel
Zvuk: Prenosová rýchlosť: 128 kbps
Formát zvuku: Lame MP3 stereo
Jazyková verzia: čestina
Video: Frekvencia: 23 snímkov za sekundu
Rýchlosť dát: 1044 kbps

*.avi, 700 MB, bez hesla. Stiahni súbor, prečítaj si ho a nakoniec si z mnohých uvedených serverov vyber ten, odkiaľ si to chceš stiahnuť.

FILESERVE COM:
Odkaz na stiahnutie:
Pre zobrazenie odkazov sa musíte alebo

FILEFACTORY COM:
Odkaz na stiahnutie:
Pre zobrazenie odkazov sa musíte alebo

WUPLOAD COM:
Odkaz na stiahnutie:
Pre zobrazenie odkazov sa musíte alebo

HELLSHARE COM:
Odkaz na stiahnutie:
Pre zobrazenie odkazov sa musíte alebo

SHARE RAPID COM:
Odkaz na stiahnutie:
Pre zobrazenie odkazov sa musíte alebo
Naposledy upravil Ansambla dňa Štv Nov 24, 2011 9:38 am, celkovo upravené 2

Anonymous18122013
 

Bílý Elephant / Elephant White (2011)

Poslaťod Anonymous18122013 » Pon Okt 31, 2011 9:40 am

Obrázok

Bílý Elephant / Elephant White (2011)

Elephant.White.2011.BRRip.XviD.CZ

Obrázok

Obrázok


Obrázok

Odkaz na stiahnutie:
Pre zobrazenie odkazov sa musíte alebo



Obrázok


Obrázok

Odkaz na stiahnutie:
Pre zobrazenie odkazov sa musíte alebo




Obrázok

Obrázok


Odkaz na stiahnutie:
Pre zobrazenie odkazov sa musíte alebo




Obrázok


Odkaz na stiahnutie:
Pre zobrazenie odkazov sa musíte alebo





Obrázok
***********************************************************************************************************************
Obrázok

Elephant.White.2011.480p.BRRip.XviD.AC3.CZ


Obrázok

Odkaz na stiahnutie:
Pre zobrazenie odkazov sa musíte alebo




Obrázok



Obrázok

Odkaz na stiahnutie:
Pre zobrazenie odkazov sa musíte alebo



Obrázok

Odkaz na stiahnutie:
Pre zobrazenie odkazov sa musíte alebo





Obrázok
Naposledy upravil Anonymous18122013 dňa Pon Okt 31, 2011 11:25 pm, celkovo upravené 2

Obrázok užívateľa
majors
Gold User
Gold User
 
Príspevky: 1985
Registrovaný: Pia Júl 11, 2008 8:49 am
Has thanked: 0 time
Been thanked: 200 times

Poslaťod majors » Pon Okt 31, 2011 10:24 am

Bílý Elephant / Elephant White (2011)

Elephant.White.2011.BRRip.XviD.CZ-LEADERs

Obrázok

Odkaz na stiahnutie:
Pre zobrazenie odkazov sa musíte alebo


Odkaz na stiahnutie:
Pre zobrazenie odkazov sa musíte alebo


Screens:

ObrázokObrázokObrázok

Obrázok
Odkaz na stiahnutie:
Pre zobrazenie odkazov sa musíte alebo


Obrázok
Odkaz na stiahnutie:
Pre zobrazenie odkazov sa musíte alebo


Obrázok
Odkaz na stiahnutie:
Pre zobrazenie odkazov sa musíte alebo


Obrázok
Odkaz na stiahnutie:
Pre zobrazenie odkazov sa musíte alebo


--------------------------------------------------------------------------------------------------------------

Elephant.White.2011.480p.BRRip.XviD.AC3.CZ.LEADERs

Veľkosť súboru : 1,44 Gb.
[Film]
Platnosť : Ano [AVI]
Trvanie : 01:31:30
Kompletný film : Ano
[Video]
Rozlíšenie : 720x304
Kodek : XviD MPEG-4 codec
FPS : 23,98
BitRate : 1798 Kbps
Quality Factor : 0,35 b/px
[Audio]
Kodek : ATSC/A-52 Dolby AC3
Počet kanálov : 6
Sample Rate : 48000 Hz
BitRate : 448 Kbps

Screens:

ObrázokObrázokObrázok

Obrázok
Odkaz na stiahnutie:
Pre zobrazenie odkazov sa musíte alebo


Obrázok
Odkaz na stiahnutie:
Pre zobrazenie odkazov sa musíte alebo


Obrázok
Odkaz na stiahnutie:
Pre zobrazenie odkazov sa musíte alebo


Obrázok
Odkaz na stiahnutie:
Pre zobrazenie odkazov sa musíte alebo



Titulky CZ Forced

Odkaz na stiahnutie:
Pre zobrazenie odkazov sa musíte alebo
Naposledy upravil majors dňa Pon Okt 31, 2011 1:27 pm, celkovo upravené 1
Prežívaj každý deň tak ako keby mal byť tvojim posledným, lebo jeden z nich bude posledným.

Obrázok užívateľa
frontman242
ourphorum MAFIA
ourphorum MAFIA
 
Príspevky: 4264
Registrovaný: Str Júl 16, 2008 4:31 am
Has thanked: 0 time
Been thanked: 274 times

Poslaťod frontman242 » Pon Okt 31, 2011 10:38 am

Bílý Elephant / Elephant White (2011)

BR Rip - Česky
Obrázok

Odkaz na stiahnutie:
Pre zobrazenie odkazov sa musíte alebo


Sám proti novodobým otrokářům v Thajsku. Chladnokrevného nájemného zabijáka Curtieho Churche v Bangkoku osloví neznámý zákazník, který mu dobře zaplatí, když zlikviduje členy gangu provozujícího obchod s mladými děvčaty. Kdysi prý unesli jeho dceru a přinutili ji k prostituci. Pro Churche je to práce jako každá jiná, brzy však zjistí, že celá věc je náročnější, než se původně domníval. Zastavit se však už neumí a za svým cílem jde bez milosti, jako by najednou nesnesl pomyšlení, že je ubližováno nevinným. Snad to způsobila i mladičká prostitutka Mae, která ho na jeho nebezpečné misi doprovází. Když dívka beze stopy zmizí a Curtie se ji snaží znovu najít, je šokován pravdou o jejím osudu.

Akční / Thriller
USA, 2011
Režie: Prachya Pinkaew
Hrají: Djimon Hounsou, Kevin Bacon

Odkaz na stiahnutie:
Pre zobrazenie odkazov sa musíte alebo


Obrázok
Odkaz na stiahnutie:
Pre zobrazenie odkazov sa musíte alebo

Obrázok
Odkaz na stiahnutie:
Pre zobrazenie odkazov sa musíte alebo

Obrázok
Odkaz na stiahnutie:
Pre zobrazenie odkazov sa musíte alebo

Obrázok
Odkaz na stiahnutie:
Pre zobrazenie odkazov sa musíte alebo

Obrázok
Odkaz na stiahnutie:
Pre zobrazenie odkazov sa musíte alebo

Obrázok
Odkaz na stiahnutie:
Pre zobrazenie odkazov sa musíte alebo



FORCED Titulky:
Odkaz na stiahnutie:
Pre zobrazenie odkazov sa musíte alebo


BR Rip - 480p - Česky
Odkaz na stiahnutie:
Pre zobrazenie odkazov sa musíte alebo


Obrázok
Odkaz na stiahnutie:
Pre zobrazenie odkazov sa musíte alebo

Obrázok
Odkaz na stiahnutie:
Pre zobrazenie odkazov sa musíte alebo

Obrázok
Odkaz na stiahnutie:
Pre zobrazenie odkazov sa musíte alebo

Obrázok
Odkaz na stiahnutie:
Pre zobrazenie odkazov sa musíte alebo

Obrázok
Odkaz na stiahnutie:
Pre zobrazenie odkazov sa musíte alebo

Obrázok
Odkaz na stiahnutie:
Pre zobrazenie odkazov sa musíte alebo
Naposledy upravil frontman242 dňa Pon Okt 31, 2011 4:14 pm, celkovo upravené 1
Ponúkam výhodne kredit na Share-rapid, bližšie info cez SS/PM

peto67
Power User
Power User
 
Príspevky: 426
Registrovaný: Ned Okt 18, 2009 2:28 pm
Has thanked: 2 times
Been thanked: 25 times

Poslaťod peto67 » Pon Okt 31, 2011 10:57 am

Bílý Elephant / Elephant White (2011)
BRRip.Cz dabing

Obrázok

Akční / Thriller
USA, 2011

Obrázok
Odkaz na stiahnutie:
Pre zobrazenie odkazov sa musíte alebo



Obsah
Sám proti novodobým otrokářům v Thajsku. Chladnokrevného nájemného zabijáka Curtieho Churche v Bangkoku osloví neznámý zákazník, který mu dobře zaplatí, když zlikviduje členy gangu provozujícího obchod s mladými děvčaty. Kdysi prý unesli jeho dceru a přinutili ji k prostituci. Pro Churche je to práce jako každá jiná, brzy však zjistí, že celá věc je náročnější, než se původně domníval. Zastavit se však už neumí a za svým cílem jde bez milosti, jako by najednou nesnesl pomyšlení, že je ubližováno nevinným.


KVALITA
VIDEO
Veľkosť súboru 700 MB
Délka 01h 31mn 30s
Kodek XviD (AVI)
Bitrate 933 Kbps
Šířka 640 pixels
Výška 272 pixels
Poměr stran 2.35
Frekvence snímků 23.976 fps
AUDIO
Kodek MP3
Bitrate 128 Kbps
Bitrate mód Constant
Počet kanálů 2 channels



HELLSHARE
Odkaz na stiahnutie:
Pre zobrazenie odkazov sa musíte alebo

g0ldmaster
Gold User
Gold User
 
Príspevky: 1237
Registrovaný: Ned Apr 10, 2011 11:09 pm
Has thanked: 1 time
Been thanked: 128 times

Poslaťod g0ldmaster » Pon Okt 31, 2011 11:22 am

Elephant.White.2011.BRRip.XviD.CZ-LEADERs
Bílý Elephant / Elephant White (2011)

Obrázok

Obrázok
Odkaz na stiahnutie:
Pre zobrazenie odkazov sa musíte alebo

Odkaz na stiahnutie:
Pre zobrazenie odkazov sa musíte alebo


Obrázok
Odkaz na stiahnutie:
Pre zobrazenie odkazov sa musíte alebo

Odkaz na stiahnutie:
Pre zobrazenie odkazov sa musíte alebo

Odkaz na stiahnutie:
Pre zobrazenie odkazov sa musíte alebo

Odkaz na stiahnutie:
Pre zobrazenie odkazov sa musíte alebo

Odkaz na stiahnutie:
Pre zobrazenie odkazov sa musíte alebo


Obrázok

silvias
Uploader
Uploader
 
Príspevky: 2509
Registrovaný: Pon Máj 05, 2008 8:14 pm
Has thanked: 2 times
Been thanked: 800 times

Poslaťod silvias » Pon Okt 31, 2011 11:32 am

Bílý Elephant / Elephant White (2011)

Obrázok

Elephant.White.2011.BRRip.XviD.CZ-LEADERs

Odkaz na stiahnutie:
Pre zobrazenie odkazov sa musíte alebo


Akční / Thriller
USA, 2011


Režie:
Prachya Pinkaew
Hrají:
Djimon Hounsou, Kevin Bacon

Sám proti novodobým otrokářům v Thajsku. Chladnokrevného nájemného zabijáka Curtieho Churche v Bangkoku osloví neznámý zákazník, který mu dobře zaplatí, když zlikviduje členy gangu provozujícího obchod s mladými děvčaty. Kdysi prý unesli jeho dceru a přinutili ji k prostituci. Pro Churche je to práce jako každá jiná, brzy však zjistí, že celá věc je náročnější, než se původně domníval. Zastavit se však už neumí a za svým cílem jde bez milosti, jako by najednou nesnesl pomyšlení, že je ubližováno nevinným. Snad to způsobila i mladičká prostitutka Mae, která ho na jeho nebezpečné misi doprovází. Když dívka beze stopy zmizí a Curtie se ji snaží znovu najít, je šokován pravdou o jejím osudu.

FORMAT : AVI
CODEC : XviD
RESOLUTiON : 640x272
ViDEO : 933 Kbps
AUDiO : 128 Kbps MP3 2CH
LANGUAGE : Czech
SiZE : 700 MB



Odkaz na stiahnutie:
Pre zobrazenie odkazov sa musíte alebo

Odkaz na stiahnutie:
Pre zobrazenie odkazov sa musíte alebo

Odkaz na stiahnutie:
Pre zobrazenie odkazov sa musíte alebo

Odkaz na stiahnutie:
Pre zobrazenie odkazov sa musíte alebo

Odkaz na stiahnutie:
Pre zobrazenie odkazov sa musíte alebo

Odkaz na stiahnutie:
Pre zobrazenie odkazov sa musíte alebo

Odkaz na stiahnutie:
Pre zobrazenie odkazov sa musíte alebo

Odkaz na stiahnutie:
Pre zobrazenie odkazov sa musíte alebo



Bez hesla ..
Naposledy upravil silvias dňa Pon Okt 31, 2011 8:03 pm, celkovo upravené 4

rAndom007
Top Prispievateľ
Top Prispievateľ
 
Príspevky: 308
Registrovaný: Pon Aug 29, 2011 7:22 pm
Has thanked: 0 time
Been thanked: 41 times

Poslaťod rAndom007 » Pon Okt 31, 2011 11:48 am

Name:Bílý Elephant / Elephant White (2011)
Rls:Elephant.White.2011.BRRip.XviD.CZ-LEADERs


Obrázok

CSFD:
Odkaz na stiahnutie:
Pre zobrazenie odkazov sa musíte alebo


INFO:
Odkaz na stiahnutie:
Pre zobrazenie odkazov sa musíte alebo


Screen:
Obrázok

HELLSHARE >>>
Odkaz na stiahnutie:
Pre zobrazenie odkazov sa musíte alebo


SHARE-RAPID >>>
Odkaz na stiahnutie:
Pre zobrazenie odkazov sa musíte alebo


FILESERVE >>>
Odkaz na stiahnutie:
Pre zobrazenie odkazov sa musíte alebo


CZSHARE >>>
Odkaz na stiahnutie:
Pre zobrazenie odkazov sa musíte alebo


WUPLOAD >>>
Odkaz na stiahnutie:
Pre zobrazenie odkazov sa musíte alebo


EUROSHARE >>>
Odkaz na stiahnutie:
Pre zobrazenie odkazov sa musíte alebo


MULTISHARE >>>
Odkaz na stiahnutie:
Pre zobrazenie odkazov sa musíte alebo


--

FORCED:
Odkaz na stiahnutie:
Pre zobrazenie odkazov sa musíte alebo



----------------------------------------


Name:Bílý Elephant / Elephant White (2011)
Rls:Elephant.White.2011.480p.BRRip.XviD.AC3.CZ.LEADERs


INFO:
Odkaz na stiahnutie:
Pre zobrazenie odkazov sa musíte alebo


Screen:
Obrázok

HELLSHARE >>>
Odkaz na stiahnutie:
Pre zobrazenie odkazov sa musíte alebo


SHARE-RAPID >>>
Odkaz na stiahnutie:
Pre zobrazenie odkazov sa musíte alebo


FILESERVE >>>
Odkaz na stiahnutie:
Pre zobrazenie odkazov sa musíte alebo


CZSHARE >>>
Odkaz na stiahnutie:
Pre zobrazenie odkazov sa musíte alebo


WUPLOAD >>>
Odkaz na stiahnutie:
Pre zobrazenie odkazov sa musíte alebo


EUROSHARE >>>
Odkaz na stiahnutie:
Pre zobrazenie odkazov sa musíte alebo


MULTISHARE >>>
Odkaz na stiahnutie:
Pre zobrazenie odkazov sa musíte alebo


--

FORCED:
Odkaz na stiahnutie:
Pre zobrazenie odkazov sa musíte alebo
Naposledy upravil rAndom007 dňa Uto Nov 01, 2011 12:01 am, celkovo upravené 1

Janome
Top Prispievateľ
Top Prispievateľ
 
Príspevky: 315
Registrovaný: Sob Okt 29, 2011 12:33 am
Has thanked: 0 time
Been thanked: 54 times

Poslaťod Janome » Pon Okt 31, 2011 2:34 pm

Obrázok
--------------Bílý Elephant / Elephant White (2011)--------------

Obrázok
--------------Elephant.White.2011.BRRip.XviD.CZ-LEADERs--------------

Obrázok
    Obrázok


Obrázok
Odkaz na stiahnutie:
Pre zobrazenie odkazov sa musíte alebo

Obrázok
Odkaz na stiahnutie:
Pre zobrazenie odkazov sa musíte alebo

Obrázok
Obrázok
Odkaz na stiahnutie:
Pre zobrazenie odkazov sa musíte alebo


Obrázok
Odkaz na stiahnutie:
Pre zobrazenie odkazov sa musíte alebo


Obrázok
Odkaz na stiahnutie:
Pre zobrazenie odkazov sa musíte alebo


Obrázok
Odkaz na stiahnutie:
Pre zobrazenie odkazov sa musíte alebo


Obrázok
Odkaz na stiahnutie:
Pre zobrazenie odkazov sa musíte alebo


Obrázok
Obrázok
Uploaduji Vždy na rapidshare,Wupload.
Moje uploady jsou vždy Bez hesla !!!
Pokuď je některý upload mrtvý napiš do PM/SZ !!
Soubory na disku držím max 48hodin poté je mažu.
Striktní zákaz postování mých uploadu někam jinam.
Děkuji za každé stažení a poděkování.
-----------Upload by Janome1-----------

pieroh16
Power User
Power User
 
Príspevky: 642
Registrovaný: Ned Feb 22, 2009 5:31 pm
Has thanked: 0 time
Been thanked: 35 times

Poslaťod pieroh16 » Pon Okt 31, 2011 3:57 pm

Elephant White 2011 BRRip XviD CZ

Obrázok

Info:

Akční / Thriller
USA, 2011
Jazyk: Český


Sám proti novodobým otrokářům v Thajsku. Chladnokrevného nájemného zabijáka Curtieho Churche v Bangkoku osloví neznámý zákazník, který mu dobře zaplatí, když zlikviduje členy gangu provozujícího obchod s mladými děvčaty. Kdysi prý unesli jeho dceru a přinutili ji k prostituci. Pro Churche je to práce jako každá jiná, brzy však zjistí, že celá věc je náročnější, než se původně domníval. Zastavit se však už neumí a za svým cílem jde bez milosti, jako by najednou nesnesl pomyšlení, že je ubližováno nevinným. Snad to způsobila i mladičká prostitutka Mae, která ho na jeho nebezpečné misi doprovází. Když dívka beze stopy zmizí a Curtie se ji snaží znovu najít, je šokován pravdou o jejím osudu.

700 MB

Obrázok

Typ: Video
Kodek: MPEG-4 Video (XVID)
Rozlíšenie: 640x272
Frekvencia snímok: 23.976023

Typ: Zvuk
Kodek: MPEG Audio layer 1/2/3 (mpga)
Kanály: Stereo
Vzorkovacia frekvencia: 48000 Hz
Dátový tok: 128 kb/s


Obrázok
Obrázok

Odkaz na stiahnutie:
Pre zobrazenie odkazov sa musíte alebo




Obrázok
No

doudajos
Excellent User
Excellent User
 
Príspevky: 970
Registrovaný: Uto Sep 09, 2008 10:00 pm
Has thanked: 3 times
Been thanked: 43 times

Poslaťod doudajos » Pon Okt 31, 2011 5:07 pm

Elephant White 2011

Obrázok
Info:

Akční / Thriller
USA, 2011
Jazyk: Český

Sám proti novodobým otrokářům v Thajsku. Chladnokrevného nájemného zabijáka Curtieho Churche v Bangkoku osloví neznámý zákazník, který mu dobře zaplatí, když zlikviduje členy gangu provozujícího obchod s mladými děvčaty. Kdysi prý unesli jeho dceru a přinutili ji k prostituci. Pro Churche je to práce jako každá jiná, brzy však zjistí, že celá věc je náročnější, než se původně domníval. Zastavit se však už neumí a za svým cílem jde bez milosti, jako by najednou nesnesl pomyšlení, že je ubližováno nevinným. Snad to způsobila i mladičká prostitutka Mae, která ho na jeho nebezpečné misi doprovází. Když dívka beze stopy zmizí a Curtie se ji snaží znovu najít, je šokován pravdou o jejím osudu.Format : AVI at 1 070 Kbps
Length : 700 MiB for 1h 31mn 30s 491ms

Video #0 : MPEG-4 Visual at 933 Kbps
Aspect : 640 x 272 (2.353) at 23.976 fps

Audio #0 : MPEG Audio at 128 Kbps
Infos : 2 kanály, 48,0 KHz



Odkaz na stiahnutie:
Pre zobrazenie odkazov sa musíte alebo

justinlee_2010
Power User
Power User
 
Príspevky: 690
Registrovaný: Str Apr 13, 2011 1:13 am
Has thanked: 2 times
Been thanked: 43 times

Poslaťod justinlee_2010 » Pon Okt 31, 2011 6:56 pm

Bílý Elephant / Elephant White (2011)

Obrázok

Obrázok
Odkaz na stiahnutie:
Pre zobrazenie odkazov sa musíte alebo

Akční / Thriller
USA, 2011
Režie:
Prachya Pinkaew
Hrají:
Djimon Hounsou, Kevin Bacon

Sám proti novodobým otrokářům v Thajsku. Chladnokrevného nájemného zabijáka Curtieho Churche v Bangkoku osloví neznámý zákazník, který mu dobře zaplatí, když zlikviduje členy gangu provozujícího obchod s mladými děvčaty. Kdysi prý unesli jeho dceru a přinutili ji k prostituci. Pro Churche je to práce jako každá jiná, brzy však zjistí, že celá věc je náročnější, než se původně domníval. Zastavit se však už neumí a za svým cílem jde bez milosti, jako by najednou nesnesl pomyšlení, že je ubližováno nevinným. Snad to způsobila i mladičká prostitutka Mae, která ho na jeho nebezpečné misi doprovází. Když dívka beze stopy zmizí a Curtie se ji snaží znovu najít, je šokován pravdou o jejím osudu.

Obrázok
RLS:Elephant.White.2011.BRRip.XviD.CZ-LEADERs
Format : AVI
Format/Info : Audio Video Interleave
File size : 700 MiB
Duration : 1h 31mn
Overall bit rate : 1 070 Kbps
Writing application : VirtualDubMod 1.5.10.2 (build 2540/release)
Writing library : VirtualDubMod build 2540/release

Video
ID : 0
Format : MPEG-4 Visual
Format profile : Advanced Simple@L5
Format settings, BVOP : 2
Format settings, QPel : No
Format settings, GMC : No warppoints
Format settings, Matrix : Default (MPEG)
Codec ID : XVID
Codec ID/Hint : XviD
Duration : 1h 31mn
Bit rate : 933 Kbps
Width : 640 pixels
Height : 272 pixels
Display aspect ratio : 2.35:1
Frame rate : 23.976 fps
Color space : YUV
Chroma subsampling : 4:2:0
Bit depth : 8 bits
Scan type : Progressive
Compression mode : Lossy
Bits/(Pixel*Frame) : 0.223
Stream size : 610 MiB (87%)
Writing library : XviD 1.2.1 (UTC 2008-12-04)

Audio
ID : 1
Format : MPEG Audio
Format version : Version 1
Format profile : Layer 3
Mode : Joint stereo
Mode extension : MS Stereo
Codec ID : 55
Codec ID/Hint : MP3
Duration : 1h 31mn
Bit rate mode : Constant
Bit rate : 128 Kbps
Channel(s) : 2 channels
Sampling rate : 48.0 KHz
Compression mode : Lossy
Delay relative to video : 24ms
Stream size : 83.7 MiB (12%)
Alignment : Aligned on interleaves
Interleave, duration : 42 ms (1.00 video frame)
Interleave, preload duration : 504 ms


Obrázok

Obrázok
Odkaz na stiahnutie:
Pre zobrazenie odkazov sa musíte alebo


Obrázok

Obrázok
Odkaz na stiahnutie:
Pre zobrazenie odkazov sa musíte alebo


Obrázok
RLS:Elephant.White.2011.480p.BRRip.XviD.AC3.CZ.LEADERs
Format : AVI
Format/Info : Audio Video Interleave
File size : 1.44 GiB
Duration : 1h 31mn
Overall bit rate : 2 246 Kbps
Writing application : VirtualDubMod 1.5.10.2 (build 2540/release)
Writing library : VirtualDubMod build 2540/release

Video
ID : 0
Format : MPEG-4 Visual
Format profile : Advanced Simple@L5
Format settings, BVOP : 3
Format settings, QPel : No
Format settings, GMC : No warppoints
Format settings, Matrix : Default (MPEG)
Codec ID : XVID
Codec ID/Hint : XviD
Duration : 1h 31mn
Bit rate : 1 789 Kbps
Width : 720 pixels
Height : 304 pixels
Display aspect ratio : 2.35:1
Frame rate : 23.976 fps
Color space : YUV
Chroma subsampling : 4:2:0
Bit depth : 8 bits
Scan type : Progressive
Compression mode : Lossy
Bits/(Pixel*Frame) : 0.341
Stream size : 1.14 GiB (80%)
Writing library : XviD 62

Audio
ID : 1
Format : AC-3
Format/Info : Audio Coding 3
Mode extension : CM (complete main)
Codec ID : 2000
Duration : 1h 31mn
Bit rate mode : Constant
Bit rate : 448 Kbps
Channel(s) : 6 channels
Channel positions : Front: L C R, Side: L R, LFE
Sampling rate : 48.0 KHz
Bit depth : 16 bits
Compression mode : Lossy
Stream size : 293 MiB (20%)
Alignment : Split accross interleaves
Interleave, duration : 42 ms (1.00 video frame)
Interleave, preload duration : 500 ms


Obrázok

Obrázok
Odkaz na stiahnutie:
Pre zobrazenie odkazov sa musíte alebo


Obrázok

Obrázok
Odkaz na stiahnutie:
Pre zobrazenie odkazov sa musíte alebo


Obrázok
Naposledy upravil justinlee_2010 dňa Pon Okt 31, 2011 11:15 pm, celkovo upravené 1

Obrázok užívateľa
j.rourek
Power User
Power User
 
Príspevky: 501
Registrovaný: Uto Júl 22, 2008 11:51 am
Has thanked: 2 times
Been thanked: 111 times

Poslaťod j.rourek » Pon Okt 31, 2011 7:19 pm

Obrázok

Bílý Elephant / Elephant White (2011)

Rel:Elephant.White.2011.DVDRip.XviD.CZ


Obrázok

Obrázok

Obrázok

Odkaz na stiahnutie:
Pre zobrazenie odkazov sa musíte alebo


Obrázok

Akční / Thriller
USA, 2011

Režie:Prachya Pinkaew
Hrají:Djimon Hounsou, Kevin Bacon


Obrázok

Obrázok
Obrázok

Obrázok

Sám proti novodobým otrokářům v Thajsku. Chladnokrevného nájemného zabijáka Curtieho Churche v Bangkoku osloví neznámý zákazník, který mu dobře zaplatí, když zlikviduje členy gangu provozujícího obchod s mladými děvčaty. Kdysi prý unesli jeho dceru a přinutili ji k prostituci. Pro Churche je to práce jako každá jiná, brzy však zjistí, že celá věc je náročnější, než se původně domníval. Zastavit se však už neumí a za svým cílem jde bez milosti, jako by najednou nesnesl pomyšlení, že je ubližováno nevinným. Snad to způsobila i mladičká prostitutka Mae, která…


Obrázok

Odkaz na stiahnutie:
Pre zobrazenie odkazov sa musíte alebo


ObrázokObrázok


ObrázokObrázokObrázokObrázokObrázokObrázokObrázokObrázokObrázokObrázok
Odkaz na stiahnutie:
Pre zobrazenie odkazov sa musíte alebo


ObrázokObrázokObrázokObrázokObrázokObrázokObrázokObrázokObrázok
Odkaz na stiahnutie:
Pre zobrazenie odkazov sa musíte alebo



ObrázokObrázokObrázokObrázokObrázokObrázokObrázok
Odkaz na stiahnutie:
Pre zobrazenie odkazov sa musíte alebo




Obrázok

V připadě problemu pište na PM./SZ./SS
Ne do příspvěvku!!!
Pokud mají linky stejnou velikost lze je konbinovat..
Moje linky jsou volně šiřitelne.
Poděkování vždy potěší...
Tento skvěly Release pro vas vyrobil -KING-OK-


Obrázok

ObrázokObrázokObrázokObrázokObrázokObrázokObrázokObrázok
ObrázokObrázokObrázokObrázokObrázokObrázokObrázokObrázok

asmorth
Gold User
Gold User
 
Príspevky: 1877
Registrovaný: Str Sep 17, 2008 3:00 pm
Has thanked: 1 time
Been thanked: 83 times

Re: Bílý Elephant / Elephant White (2011)

Poslaťod asmorth » Pon Okt 31, 2011 8:34 pm

Elephant.White.2011.480p.BRRip.XviD.AC3.CZ.LEADERs


Obrázok


Odkaz na stiahnutie:
Pre zobrazenie odkazov sa musíte alebo



Obrázok
(^2000MB split archives)
Odkaz na stiahnutie:
Pre zobrazenie odkazov sa musíte alebo



Obrázok
(^2000MB split archives)
Odkaz na stiahnutie:
Pre zobrazenie odkazov sa musíte alebo



Obrázok
(^500MB split archives)
Odkaz na stiahnutie:
Pre zobrazenie odkazov sa musíte alebo



Obrázok
(^500MB split archives)
Odkaz na stiahnutie:
Pre zobrazenie odkazov sa musíte alebo



Obrázok
(^500MB split archives)
Odkaz na stiahnutie:
Pre zobrazenie odkazov sa musíte alebo



500MB linky sú kombinovateľné

Obrázok užívateľa
pablos33
Gold User
Gold User
 
Príspevky: 1331
Registrovaný: Štv Feb 25, 2010 11:50 am
Has thanked: 7 times
Been thanked: 258 times

Poslaťod pablos33 » Pon Okt 31, 2011 8:37 pm

Bílý Elephant / Elephant White (2011)

Elephant.White.2011.BRRip.XviD.CZ-LEADERs - forced titulky přiloženy v raru

Obrázok

C S F D
Odkaz na stiahnutie:
Pre zobrazenie odkazov sa musíte alebo


I N F O

Akční / Thriller

USA, 2011
Režie:
Prachya Pinkaew
Hrají:
Djimon Hounsou, Kevin Bacon


Sám proti novodobým otrokářům v Thajsku. Chladnokrevného nájemného zabijáka Curtieho Churche v Bangkoku osloví neznámý zákazník, který mu dobře zaplatí, když zlikviduje členy gangu provozujícího obchod s mladými děvčaty. Kdysi prý unesli jeho dceru a přinutili ji k prostituci. Pro Churche je to práce jako každá jiná, brzy však zjistí, že celá věc je náročnější, než se původně domníval. Zastavit se však už neumí a za svým cílem jde bez milosti, jako by najednou nesnesl pomyšlení, že je ubližováno nevinným. Snad to způsobila i mladičká prostitutka Mae, která ho na jeho nebezpečné misi doprovází. Když dívka beze stopy zmizí a Curtie se ji snaží znovu najít, je šokován pravdou o jejím osudu.


Q U A L I T Y

Format : AVI at 1 070 Kbps
Length : 700 MiB for 1h 31mn 30s 485ms

Video #0 : MPEG-4 Visual at 933 Kbps
Aspect : 640 x 272 (2.353) at 23.976 fps

Audio #0 : MPEG Audio at 128 Kbps
Infos : 2 kanály, 48,0 KHz


D O W N L O A D :

HELLSHARE
Odkaz na stiahnutie:
Pre zobrazenie odkazov sa musíte alebo

SHARERAPID
Odkaz na stiahnutie:
Pre zobrazenie odkazov sa musíte alebo

eDISK
Odkaz na stiahnutie:
Pre zobrazenie odkazov sa musíte alebo

FILESERVE
Odkaz na stiahnutie:
Pre zobrazenie odkazov sa musíte alebo

EUROSHARE
Odkaz na stiahnutie:
Pre zobrazenie odkazov sa musíte alebo

MULTISHARE
Odkaz na stiahnutie:
Pre zobrazenie odkazov sa musíte alebo


Elephant.White.2011.480p.BRRip.XviD.AC3.CZ.LEADERs - forced titulky přiloženy v raru

Q U A L I T Y

Format : AVI at 2 246 Kbps
Length : 1,44 GiB for 1h 31mn 30s 485ms

Video #0 : MPEG-4 Visual at 1 789 Kbps
Aspect : 720 x 304 (2.368) at 23.976 fps

Audio #0 : AC-3 at 448 Kbps
Infos : 6 kanály, 48,0 KHz


D O W N L O A D :

HELLSHARE
Odkaz na stiahnutie:
Pre zobrazenie odkazov sa musíte alebo

SHARERAPID
Odkaz na stiahnutie:
Pre zobrazenie odkazov sa musíte alebo

eDISK
Odkaz na stiahnutie:
Pre zobrazenie odkazov sa musíte alebo

FILESERVE
Odkaz na stiahnutie:
Pre zobrazenie odkazov sa musíte alebo

EUROSHARE
Odkaz na stiahnutie:
Pre zobrazenie odkazov sa musíte alebo

MULTISHARE
Odkaz na stiahnutie:
Pre zobrazenie odkazov sa musíte alebo

Obrázok užívateľa
Technik68
Power User
Power User
 
Príspevky: 559
Registrovaný: Pia Okt 31, 2008 3:19 pm
Has thanked: 4 times
Been thanked: 451 times

Poslaťod Technik68 » Pon Okt 31, 2011 9:07 pm

Obrázok


Bílý Elephant / Elephant White (2011)


Obrázok


Obrázok


Obrázok

CSFD :

Odkaz na stiahnutie:
Pre zobrazenie odkazov sa musíte alebo



Akční / Thriller
USA, 2011

Režie: Prachya Pinkaew
Hrají: Djimon Hounsou, Kevin Bacon

Sám proti novodobým otrokářům v Thajsku. Chladnokrevného nájemného zabijáka Curtieho Churche v Bangkoku
osloví neznámý zákazník, který mu dobře zaplatí, když zlikviduje členy gangu provozujícího obchod s mladými
děvčaty. Kdysi prý unesli jeho dceru a přinutili ji k prostituci. Pro Churche je to práce jako každá jiná,
brzy však zjistí, že celá věc je náročnější, než se původně domníval. Zastavit se však už neumí a za svým
cílem jde bez milosti, jako by najednou nesnesl pomyšlení, že je ubližováno nevinným. Snad to způsobila
i mladičká prostitutka Mae, která ho na jeho nebezpečné misi doprovází. Když dívka beze stopy zmizí a Curtie
se ji snaží znovu najít, je šokován pravdou o jejím osudu.



Obrázok

Typ súboru:--------------------- AVI (BRRip)
Veľkosť súboru:----------------- 700 MB (734 267 392 bajtov)
Šírka:-------------------------- 640 pixelov
Výška:-------------------------- 272 pixelov
Trvanie:------------------------ 01:31:30
Bit.rýchlosť:------------------- 128kbps
Formát zvuku:------------------- Lame MP3
Jazyk:-------------------------- CZ
Frekvencia snímok:-------------- 23 snímky/s
Prenos.rýchlosť:---------------- 1044kbps
Veľkosť ukážky videa:----------- 12 bitov
Kompresia videa:---------------- XVID

Pribalené CZ forced titulky !!!


Obrázok


Obrázok

Odkaz na stiahnutie:
Pre zobrazenie odkazov sa musíte alebo


Obrázok

Odkaz na stiahnutie:
Pre zobrazenie odkazov sa musíte alebo


Obrázok

Odkaz na stiahnutie:
Pre zobrazenie odkazov sa musíte alebo


Obrázok

Odkaz na stiahnutie:
Pre zobrazenie odkazov sa musíte alebo


Obrázok

Odkaz na stiahnutie:
Pre zobrazenie odkazov sa musíte alebo




Obrázok



Obrázok

Všetky uploady sú bez hesla.
Linky sú kombinovateľné, ak je ich rovnaký počet a veľkosť.
Všetky moje uploady sú balené vo WinRARe, rozbaľujte ich iba v programe WinRAR.
Každý archív obsahuje 3%-ný záznam pre opravu dát.
--

"Ďakujem" poteší, alebo pošli "(+)" !!!
--
Upozornenie!Táto správa neslúži ako návod pre získavanie nelegálnych kopii a ani to nijako nepodporuje!!!

sawyer193
Prispievateľ
Prispievateľ
 
Príspevky: 190
Registrovaný: Ned Okt 19, 2008 8:49 pm
Has thanked: 1 time
Been thanked: 18 times

Poslaťod sawyer193 » Pon Okt 31, 2011 9:59 pm

Bílý Elephant / Elephant White (2011)
Název Release:Elephant.White.2011.BRRip.XviD.CZ-LEADERs

Obrázok

Obrázok
Obrázok
Odkaz na stiahnutie:
Pre zobrazenie odkazov sa musíte alebo

Obrázok

IMDb rating: 5.0/10

Akční / Thriller
USA

[Film]
Formát : AVI
Velikost Souboru : 700 MB
Délka : 1:31:30
[Video]
Rozlišení : 640x272
FPS: : 23.00
BitRate : 1069 kbps
[Zvuk]
Počet Kanálů : 2
Sample Rate : 48 kHz
BitRate: : 128 kbps


Obrázok

Obrázok

Odkaz na stiahnutie:
Pre zobrazenie odkazov sa musíte alebo


Obrázok

Odkaz na stiahnutie:
Pre zobrazenie odkazov sa musíte alebo


Obrázok

Ďalší

Späť na Movie - SK/CZ Filmy ´´

Kto je on-line

Užívatelia prezerajúci fórum: ganhsta, nika3121, richard97 a 4 hostia