//


Castle / Castle na zabití / CZ,EN

Nefunkčné linky, staré nevhodné a zabudnuté témy (presunuté za obdobie 2007-2010)
pornsumo
Excellent User
Excellent User
 
Príspevky: 1046
Registrovaný: Štv Máj 06, 2010 10:22 pm
Has thanked: 0 time
Been thanked: 172 times

Castle / Castle na zabití / CZ,EN

Poslaťod pornsumo » Str Dec 08, 2010 1:18 am

Castle na zabití / Castle CZ,EN - pix

Obrázok

Odkaz na stiahnutie:
Pre zobrazenie odkazov sa musíte alebo


Rick Castle (Nathan Fillion) je lehkovážný spisovatel detektivních románů, který se tváří, že má vše, nač si vzpomene - od slávy přes peníze a samozřejmě skalní fanynky. S pověstí lamače dívčích srdcí jde ruku v ruce. Ve svém posledním románu zabil svou nejznámější postavu, díky které vstoupil do pomyslné síně slávy, a život pro něj začíná být pomalu nuda. Ta se rozplyne v okamžiku, kdy ho kontaktuje půvabná detektivka Kate Beckettová (Stana Katic), aby ji pomohl při vyšetřování sérií vražd, které neznámý zabiják provádí přesně tak, jak jsou popsány v Nickových románech…

Odkaz na stiahnutie:
Pre zobrazenie odkazov sa musíte alebo


1.seria

Odkaz na stiahnutie:
Pre zobrazenie odkazov sa musíte alebo


Odkaz na stiahnutie:
Pre zobrazenie odkazov sa musíte alebo


2.seria

Odkaz na stiahnutie:
Pre zobrazenie odkazov sa musíte alebo


Odkaz na stiahnutie:
Pre zobrazenie odkazov sa musíte alebo

Obrázok užívateľa
killll
Prispievateľ
Prispievateľ
 
Príspevky: 186
Registrovaný: Uto Okt 27, 2009 4:04 pm
Has thanked: 3 times
Been thanked: 33 times

Poslaťod killll » Štv Jan 20, 2011 12:52 pm

Castle na zabití / Castle / CZ,EN

reup od pix2

Odkaz na stiahnutie:
Pre zobrazenie odkazov sa musíte alebo


série 1

Odkaz na stiahnutie:
Pre zobrazenie odkazov sa musíte alebo


série 2

Odkaz na stiahnutie:
Pre zobrazenie odkazov sa musíte alebo

lapepa
Gold User
Gold User
 
Príspevky: 1823
Registrovaný: Str Sep 01, 2010 10:44 am
Has thanked: 1 time
Been thanked: 134 times

Poslaťod lapepa » Str Dec 28, 2011 2:49 pm

Castle na zabití / Castle 2009 CZ 1+2+3 Série DVDrip
Obrázok


Obrázok
Odkaz na stiahnutie:
Pre zobrazenie odkazov sa musíte alebo



Obrázok
GENERAL DVDRip Serie 1
Format : AVI
Format/Info : Audio Video Interleave
File size : 350 MiB
Duration : 41mn 10s
Overall bit rate : 1 189 Kbps
Writing application : VirtualDubMod 1.5.10.2 (build 2540/release)
Writing library : VirtualDubMod build 2540/release

Video
ID : 0
Format : MPEG-4 Visual
Format profile : Advanced Simple@L5
Format settings, BVOP : 1
Format settings, QPel : No
Format settings, GMC : No warppoints
Format settings, Matrix : Default (H.263)
Muxing mode : Packed bitstream
Codec ID : XVID
Codec ID/Hint : XviD
Duration : 41mn 10s
Bit rate : 1 041 Kbps
Width : 640 pixels
Height : 352 pixels
Display aspect ratio : 16:9
Frame rate : 25.000 fps
Original frame rate : 23.976 fps
Color space : YUV
Chroma subsampling : 4:2:0
Bit depth : 8 bits
Scan type : Progressive
Compression mode : Lossy
Bits/(Pixel*Frame) : 0.185
Stream size : 307 MiB (88%)
Writing library : XviD 1.1.2 (UTC 2006-11-01)

Audio
ID : 1
Format : MPEG Audio
Format version : Version 1
Format profile : Layer 3
Mode : Joint stereo
Mode extension : MS Stereo
Codec ID : 55
Codec ID/Hint : MP3
Duration : 41mn 10s
Bit rate mode : Variable
Bit rate : 135 Kbps
Nominal bit rate : 142 Kbps
Channel(s) : 2 channels
Sampling rate : 48.0 KHz
Compression mode : Lossy
Stream size : 39.7 MiB (11%)
Alignment : Aligned on interleaves
Interleave, duration : 24 ms (0.60 video frame)
Interleave, preload duration : 136 ms
Writing library : LAME3.98r
Encoding settings : -m j -V 4 -q 3 -lowpass 17 --abr 142



Serie 1
Obrázok
Odkaz na stiahnutie:
Pre zobrazenie odkazov sa musíte alebo



Obrázok
Odkaz na stiahnutie:
Pre zobrazenie odkazov sa musíte alebo



Obrázok
Odkaz na stiahnutie:
Pre zobrazenie odkazov sa musíte alebo


Obrázok
Odkaz na stiahnutie:
Pre zobrazenie odkazov sa musíte alebo


Obrázok
GENERAL DVDRip Serie 2
Format : AVI
Format/Info : Audio Video Interleave
File size : 350 MiB
Duration : 39mn 52s
Overall bit rate : 1 228 Kbps
Writing application : VirtualDubMod 1.5.10.2 (build 2540/release)
Writing library : VirtualDubMod build 2540/release

Video
ID : 0
Format : MPEG-4 Visual
Format profile : Advanced Simple@L5
Format settings, BVOP : 1
Format settings, QPel : No
Format settings, GMC : No warppoints
Format settings, Matrix : Default (H.263)
Muxing mode : Packed bitstream
Codec ID : XVID
Codec ID/Hint : XviD
Duration : 39mn 52s
Bit rate : 1 079 Kbps
Width : 640 pixels
Height : 352 pixels
Display aspect ratio : 16:9
Frame rate : 25.000 fps
Original frame rate : 23.976 fps
Color space : YUV
Chroma subsampling : 4:2:0
Bit depth : 8 bits
Scan type : Progressive
Compression mode : Lossy
Bits/(Pixel*Frame) : 0.192
Stream size : 308 MiB (88%)
Writing library : XviD 1.2.1 (UTC 2008-12-04)

Audio
ID : 1
Format : MPEG Audio
Format version : Version 1
Format profile : Layer 3
Mode : Joint stereo
Mode extension : MS Stereo
Codec ID : 55
Codec ID/Hint : MP3
Duration : 39mn 52s
Bit rate mode : Variable
Bit rate : 142 Kbps
Channel(s) : 2 channels
Sampling rate : 48.0 KHz
Compression mode : Lossy
Stream size : 38.8 MiB (11%)
Alignment : Aligned on interleaves
Interleave, duration : 24 ms (0.60 video frame)
Interleave, preload duration : 135 ms
Writing library : LAME3.98r
Encoding settings : -m j -V 4 -q 3 -lowpass 17 --abr 142




Serie 2
Obrázok
Odkaz na stiahnutie:
Pre zobrazenie odkazov sa musíte alebo



Obrázok
Odkaz na stiahnutie:
Pre zobrazenie odkazov sa musíte alebo



Obrázok
Odkaz na stiahnutie:
Pre zobrazenie odkazov sa musíte alebo


Obrázok
Odkaz na stiahnutie:
Pre zobrazenie odkazov sa musíte alebo


Serie 3

Obrázok
Odkaz na stiahnutie:
Pre zobrazenie odkazov sa musíte alebo



Obrázok
Odkaz na stiahnutie:
Pre zobrazenie odkazov sa musíte alebo



Obrázok
Odkaz na stiahnutie:
Pre zobrazenie odkazov sa musíte alebo


Obrázok
Odkaz na stiahnutie:
Pre zobrazenie odkazov sa musíte alebo
Naposledy upravil lapepa dňa Uto Mar 13, 2012 11:15 am, celkovo upravené 3

cliff7
 

Poslaťod cliff7 » Štv Dec 29, 2011 10:16 am

Castle na zabití (Castle) / 2009 --> / DVDRip / CZ dabing

Obrázok

Obrázok

Obrázok
Odkaz na stiahnutie:
Pre zobrazenie odkazov sa musíte alebo


Obrázok

1. Série

Obrázok Share-rapid.cz (~370 MB link přímo na AVI)
Odkaz na stiahnutie:
Pre zobrazenie odkazov sa musíte alebo

Obrázok Hellshare.com (~370 MB link přímo na AVI)
Odkaz na stiahnutie:
Pre zobrazenie odkazov sa musíte alebo

Obrázok CZshare.com (~370 MB link přímo na AVI)
Odkaz na stiahnutie:
Pre zobrazenie odkazov sa musíte alebo

Obrázok Netload.in (~370 MB link přímo na AVI)
Odkaz na stiahnutie:
Pre zobrazenie odkazov sa musíte alebo


2. Série

Obrázok Share-rapid.cz (~370 MB link přímo na AVI)
Odkaz na stiahnutie:
Pre zobrazenie odkazov sa musíte alebo

Obrázok Hellshare.com (~370 MB link přímo na AVI)
Odkaz na stiahnutie:
Pre zobrazenie odkazov sa musíte alebo

Obrázok CZshare.com (~370 MB link přímo na AVI)
Odkaz na stiahnutie:
Pre zobrazenie odkazov sa musíte alebo

Obrázok Netload.in (~370 MB link přímo na AVI)
Odkaz na stiahnutie:
Pre zobrazenie odkazov sa musíte alebo


Pro Vás nahrál Cliff7.
Sdílejte s mírem a buďte vděční.
Děkuji Vám, že mě podporujete tím, že ode mne stahujete.
Mé uploady jsou 100% funkční, vždy vše před nahráním otestuji.
Pokud se Vám příspěvek líbí, zvyšte karmu, nebo poděkujte.
Cliff7 jeKRÁL!


Obrázok

janoslobodny
Top Prispievateľ
Top Prispievateľ
 
Príspevky: 324
Registrovaný: Sob Nov 19, 2011 12:08 pm
Has thanked: 0 time
Been thanked: 38 times

Poslaťod janoslobodny » Pia Mar 09, 2012 5:21 pm

Castle na zabití / Castle (2009)-DVDrip_CZ

Obrázok

Odkaz na stiahnutie:
Pre zobrazenie odkazov sa musíte alebo


Obsah:

Rick Castle (Nathan Fillion) je lehkovážný spisovatel detektivních románů, který se tváří, že má vše, nač si vzpomene - od slávy přes peníze a samozřejmě skalní fanynky. S pověstí lamače dívčích srdcí jde ruku v ruce. Ve svém posledním románu zabil svou nejznámější postavu, díky které vstoupil do pomyslné síně slávy, a život pro něj začíná být pomalu nuda. Ta se rozplyne v okamžiku, kdy ho kontaktuje půvabná detektivka Kate Beckettová (Stana Katic), aby ji pomohl při vyšetřování sérií vražd, které neznámý zabiják provádí přesně tak, jak jsou popsány v Nic…

Info:

Odkaz na stiahnutie:
Pre zobrazenie odkazov sa musíte alebo


Download links


----1 seria----

Obrázok

Odkaz na stiahnutie:
Pre zobrazenie odkazov sa musíte alebo


Obrázok

Odkaz na stiahnutie:
Pre zobrazenie odkazov sa musíte alebo


Obrázok

Odkaz na stiahnutie:
Pre zobrazenie odkazov sa musíte alebo



----2 seria----

Obrázok

Odkaz na stiahnutie:
Pre zobrazenie odkazov sa musíte alebo


Obrázok

Odkaz na stiahnutie:
Pre zobrazenie odkazov sa musíte alebo


Obrázok

Odkaz na stiahnutie:
Pre zobrazenie odkazov sa musíte alebo



Bez hesla / No password

maliaricek
Power User
Power User
 
Príspevky: 691
Registrovaný: Uto Jan 03, 2012 8:35 am
Has thanked: 0 time
Been thanked: 29 times

Poslaťod maliaricek » Pia Mar 16, 2012 8:01 am

pridana Castle.S03E09.DVDRip.XviD.CZ

Odkaz na stiahnutie:
Pre zobrazenie odkazov sa musíte alebo

maliaricek
Power User
Power User
 
Príspevky: 691
Registrovaný: Uto Jan 03, 2012 8:35 am
Has thanked: 0 time
Been thanked: 29 times

Poslaťod maliaricek » Štv Mar 22, 2012 9:36 pm

pridana Castle.S03E10.DVDRip.XviD.CZ

Odkaz na stiahnutie:
Pre zobrazenie odkazov sa musíte alebo


Späť na Archív príspevkov [2007-2010]

Kto je on-line

Užívatelia prezerajúci fórum: Žiadny registrovaný užívateľ nie je prítomný a 0 hostia