//

IT-technika.SK

Cesta na tajuplný ostrov 2/Journey 2: The Mysterio ...(2012)

Nefunkčné linky, staré nevhodné a zabudnuté témy (presunuté za obdobie 2011-2014)
lapepa
Gold User
Gold User
 
Príspevky: 1823
Registrovaný: Str Sep 01, 2010 10:44 am
Has thanked: 1 time
Been thanked: 134 times

Cesta na tajuplný ostrov 2/Journey 2: The Mysterio ...(2012)

Poslaťod lapepa » Ned Feb 19, 2012 6:44 pm

Cesta na tajuplný ostrov 2 (2012)
kino - CZ

Obrázok

Obrázok
Odkaz na stiahnutie:
Pre zobrazenie odkazov sa musíte alebo



Obrázok
GENERAL TS+ CZ Dabing-kino
Format : AVI
Format/Info : Audio Video Interleave
File size : 758 MiB
Duration : 1h 26mn
Overall bit rate : 1 222 Kbps
Writing application : MEncoder SVN-r30881(20100311-gcc4.3.3)
Writing library : MPlayer

Video
ID : 0
Format : AVC
Format/Info : Advanced Video Codec
Format profile : High@L3.0
Format settings, CABAC : No
Format settings, ReFrames : 1 frame
Codec ID : avc1
Duration : 1h 26mn
Bit rate : 1 094 Kbps
Width : 720 pixels
Height : 304 pixels
Display aspect ratio : 2.35:1
Frame rate : 23.000 fps
Color space : YUV
Chroma subsampling : 4:2:0
Bit depth : 8 bits
Scan type : Progressive
Bits/(Pixel*Frame) : 0.217
Stream size : 671 MiB (89%)
Writing library : x264 core 80 r1378+57 6f6b50a
Encoding settings : cabac=0 / ref=1 / deblock=1:0:0 / analyse=0x3:0x113 / me=hex / subme=7 / psy=1 / psy_rd=1.0:0.0 / mixed_ref=0 / me_range=16 / chroma_me=1 / trellis=0 / 8x8dct=1 / cqm=0 / deadzone=21,11 / fast_pskip=1 / chroma_qp_offset=-2 / threads=6 / sliced_threads=0 / nr=0 / decimate=1 / mbaff=0 / constrained_intra=0 / bframes=0 / wpredp=2 / keyint=250 / keyint_min=25 / scenecut=40 / rc_lookahead=40 / rc=abr / mbtree=1 / bitrate=1094 / ratetol=1.0 / qcomp=0.60 / qpmin=10 / qpmax=51 / qpstep=4 / ip_ratio=1.40 / aq=1:1.00

Audio
ID : 1
Format : MPEG Audio
Format version : Version 1
Format profile : Layer 3
Mode : Joint stereo
Mode extension : MS Stereo
Codec ID : 55
Codec ID/Hint : MP3
Duration : 1h 26mn
Bit rate mode : Constant
Bit rate : 128 Kbps
Channel(s) : 2 channels
Sampling rate : 44.1 KHz
Compression mode : Lossy
Stream size : 79.4 MiB (10%)
Alignment : Aligned on interleaves
Interleave, duration : 26 ms (0.60 video frame)
Interleave, preload duration : 522 ms




Obrázok
Odkaz na stiahnutie:
Pre zobrazenie odkazov sa musíte alebo



Obrázok
Odkaz na stiahnutie:
Pre zobrazenie odkazov sa musíte alebo



Obrázok
Odkaz na stiahnutie:
Pre zobrazenie odkazov sa musíte alebo


Obrázok
Odkaz na stiahnutie:
Pre zobrazenie odkazov sa musíte alebo

Sallud
Excellent User
Excellent User
 
Príspevky: 1006
Registrovaný: Uto Dec 06, 2011 11:17 pm
Has thanked: 0 time
Been thanked: 79 times

Cesta na tajuplný ostrov 2 / Journey 2: The Mysterious Islan

Poslaťod Sallud » Pon Feb 20, 2012 3:49 am

Obrázok
Cesta na tajuplný ostrov 2 / Journey 2: The Mysterious Island (2012)
Release: Cesta na tajuplný ostrov 2. 2012 CAMRip.CZ.


Obrázok
Obrázok

Obrázok
Odkaz na stiahnutie:
Pre zobrazenie odkazov sa musíte alebo


Obrázok
Odkaz na stiahnutie:
Pre zobrazenie odkazov sa musíte alebo


Obrázok
Obrázok
Odkaz na stiahnutie:
Pre zobrazenie odkazov sa musíte alebo

Obrázok
Odkaz na stiahnutie:
Pre zobrazenie odkazov sa musíte alebo

Obrázok
Odkaz na stiahnutie:
Pre zobrazenie odkazov sa musíte alebo

Obrázok
Odkaz na stiahnutie:
Pre zobrazenie odkazov sa musíte alebo



Obrázok

_________________________________
VŠETKO JE MOJ UPLOAD

Za PowerUploaders pre Vás nahral Salud !!
Obrázok

Obrázok užívateľa
keragub
Prispievateľ
Prispievateľ
 
Príspevky: 61
Registrovaný: Ned Nov 07, 2010 1:08 am
Has thanked: 0 time
Been thanked: 10 times

Poslaťod keragub » Pon Feb 20, 2012 9:32 am

Cesta na tajuplný ostrov 2 (2012)
Cesta.na.tajuplny.ostrov2.2012.CAMrip.CZ

Obrázok
Obrázok
Odkaz na stiahnutie:
Pre zobrazenie odkazov sa musíte alebo


Odkaz na stiahnutie:
Pre zobrazenie odkazov sa musíte alebo

SHARERAPID
Odkaz na stiahnutie:
Pre zobrazenie odkazov sa musíte alebo

doudajos
Excellent User
Excellent User
 
Príspevky: 970
Registrovaný: Uto Sep 09, 2008 10:00 pm
Has thanked: 3 times
Been thanked: 43 times

Poslaťod doudajos » Pon Feb 20, 2012 9:33 pm

Obrázok
Cesta na tajuplný ostrov 2 (2012)
kino - CZ

Journey 2: The Mysterious Island
Cesta na tajomný ostrov 3D
Akční / Dobrodružný / Rodinný / Fantasy
USA, 2012, 94 min
Odkaz na stiahnutie:
Pre zobrazenie odkazov sa musíte alebo


Režie: Brad Peyton
Hudba: Andrew Lockington
Hrají: Josh Hutcherson, Dwayne Johnson, Michael Caine, Vanessa Anne Hudgens, Luis Guzmán, Kristin Davis
Obsah
V tomto pokračování celosvětově úspěšného filmu „Journey to the Center of the Earth,“ z roku 2008 nové rodinné dobrodružství filmu „Journey 2: The Mysterious Island“ ve formátu 3D začíná tím, že mladý Sean Anderson (Josh Hutcherson, který hrál v této roli i v předchozím filmu) dostane zakódované tísňové volání ze záhadného ostrova, z míst, kde by se žádný ostrov nacházet neměl. Je to místo, kde jsou zvláštní formy života, hory ze zlata, životu nebezpečné sopky a nejedno pozoruhodné tajemství. Nový nevlastní otec Hanka (Dwayne Johnson) není schopen syna zadržet a tak se s ním raději vydá na společnou výpravu. Společně s pilotem helikoptéry (Luis Guzman) a jeho krásnou a rozhodnou dcerou (Vanessa Hudgens), se vydají hledat ostrov, zachránit opuštěné obyvatele ostrova a také uniknout seizmickým vlnám, které tlačí ostrov pod vodu, kde by poklady ostrova byly navždy pohřebeny v moři. (oficiální text distributora)



Format : AVI at 1 222 Kbps
Length : 758 MiB for 1h 26mn 42s 261ms

Video #0 : avc1 at 1 082 Kbps
Aspect : 720 x 304 (2.368) at 23.000 fps

Audio #0 : MPEG Audio at 128 Kbps
Infos : 2 kanály, 44,1 KHz



Odkaz na stiahnutie:
Pre zobrazenie odkazov sa musíte alebo

Xander145
Prispievateľ
Prispievateľ
 
Príspevky: 88
Registrovaný: Pon Apr 06, 2009 7:41 pm
Has thanked: 16 times
Been thanked: 11 times

Poslaťod Xander145 » Pon Feb 20, 2012 10:24 pm

načo to sem dávate keď to je uplne na p*ču

pieroh16
Power User
Power User
 
Príspevky: 642
Registrovaný: Ned Feb 22, 2009 5:31 pm
Has thanked: 0 time
Been thanked: 35 times

Poslaťod pieroh16 » Pon Feb 20, 2012 11:12 pm

Cesta na tajuplný ostrov 2 2012 CAMRip CZ

Obrázok

Info:

Odkaz na stiahnutie:
Pre zobrazenie odkazov sa musíte alebo


Akční / Dobrodružný / Rodinný / Fantasy
USA, 2012, 94 min
Jazyk: Český


V tomto pokračování celosvětově úspěšného filmu „Journey to the Center of the Earth,“ z roku 2008 nové rodinné dobrodružství filmu „Journey 2: The Mysterious Island“ ve formátu 3D začíná tím, že mladý Sean Anderson (Josh Hutcherson, který hrál v této roli i v předchozím filmu) dostane zakódované tísňové volání ze záhadného ostrova, z míst, kde by se žádný ostrov nacházet neměl. Je to místo, kde jsou zvláštní formy života, hory ze zlata, životu nebezpečné sopky a nejedno pozoruhodné tajemství. Nový nevlastní otec Hanka (Dwayne Johnson) není schopen syna zadržet a tak se s ním raději vydá na společnou výpravu. Společně s pilotem helikoptéry (Luis Guzman) a jeho krásnou a rozhodnou dcerou (Vanessa Hudgens), se vydají hledat ostrov, zachránit opuštěné obyvatele ostrova a také uniknout seizmickým vlnám, které tlačí ostrov pod vodu, kde by poklady ostrova byly navždy pohřebeny v moři.

758 MB

Obrázok

Video
ID : 0
Formát : AVC
Formát/Info : Advanced Video Codec
Profil formátu : High@L3.0
Format_Settings_CABAC/String : Nie
Format_Settings_RefFrames/String : 1snímka
CodecID : avc1
Trvanie : 1h 26mn
Dátový tok : 1 094 Kbps
Šírka : 720pixely
Výška : 304pixely
Pomer strán : 2,35:1
Frekvencia snímok : 23,000snímok/sek.
ColorSpace : YUV
ChromaSubsampling : 4:2:0
BitDepth/String : 8 bits
ScanType/String : Progressive
Bitov/(Bod*Snímka) : 0.217
StreamSize/String : 671 MiB (89%)
Enkódoval : x264 core 80 r1378+57 6f6b50a
Nastavenie enkoderu : cabac=0 / ref=1 / deblock=1:0:0 / analyse=0x3:0x113 / me=hex / subme=7 / psy=1 / psy_rd=1.0:0.0 / mixed_ref=0 / me_range=16 / chroma_me=1 / trellis=0 / 8x8dct=1 / cqm=0 / deadzone=21,11 / fast_pskip=1 / chroma_qp_offset=-2 / threads=6 / sliced_threads=0 / nr=0 / decimate=1 / mbaff=0 / constrained_intra=0 / bframes=0 / wpredp=2 / keyint=250 / keyint_min=25 / scenecut=40 / rc_lookahead=40 / rc=abr / mbtree=1 / bitrate=1094 / ratetol=1.0 / qcomp=0.60 / qpmin=10 / qpmax=51 / qpstep=4 / ip_ratio=1.40 / aq=1:1.00

Audio
ID : 1
Formát : MPEG Audio
Format_Version : Version 1
Profil formátu : Layer 3
Režim : Joint stereo
Format_Settings_ModeExtension : MS Stereo
CodecID : 55
/ : MP3
Trvanie : 1h 26mn
Režim dátového toku : Konštantný dátový tok
Dátový tok : 128 Kbps
Kanál(y) : 2 kanály
Sampling rate : 44,1 KHz
StreamSize/String : 79,4 MiB (10%)
Interleave_Duration/String : 26 ms (0.60 video frames)
Interleave_Preload/String : 522 ms
Enkódoval : LAME3.98ŞŞŞŞŞŞŞŞŞŞŞŞ


Obrázok
Obrázok

Odkaz na stiahnutie:
Pre zobrazenie odkazov sa musíte alebo




Obrázok
No

johnyfly1
Nový člen
Nový člen
 
Príspevky: 11
Registrovaný: Pia Okt 24, 2008 1:42 pm
Has thanked: 0 time
Been thanked: 0 time

Poslaťod johnyfly1 » Str Feb 22, 2012 7:38 am

fuj to je hnusna kvalita, neda sa na to pozerat :bad:

Scott33
Prispievateľ
Prispievateľ
 
Príspevky: 50
Registrovaný: Pon Dec 22, 2008 4:10 pm
Has thanked: 3 times
Been thanked: 1 time

Kvalita

Poslaťod Scott33 » Štv Feb 23, 2012 11:05 am

Tz kks kvlaita je o P... ale chcel som ist na to do kina na 3d a pozeram ENG s titulkami.... tak tomu nerozumiem na nete v cz a v kine s titulkami....

GABITAMI
Gold User
Gold User
 
Príspevky: 1543
Registrovaný: Pia Apr 04, 2008 4:36 am
Has thanked: 0 time
Been thanked: 102 times

Poslaťod GABITAMI » Štv Feb 23, 2012 10:37 pm

Cesta na tajuplný ostrov 2/Journey 2: The Mysterious Island (2012) TS+ CZ Dabing-kino
Obrázok


Obrázok
Odkaz na stiahnutie:
Pre zobrazenie odkazov sa musíte alebo



Akční / Dobrodružný / Rodinný / Fantasy
USA, 2012, 94 min
Režie: Brad Peyton
Hudba: Andrew Lockington
Hrají: Josh Hutcherson, Dwayne Johnson, Michael Caine, Vanessa Anne Hudgens, Luis Guzmán, Kristin Davis

V tomto pokračování celosvětově úspěšného filmu „Journey to the Center of the Earth,“ z roku 2008 nové rodinné dobrodružství filmu „Journey 2: The Mysterious Island“ ve formátu 3D začíná tím, že mladý Sean Anderson (Josh Hutcherson, který hrál v této roli i v předchozím filmu) dostane zakódované tísňové volání ze záhadného ostrova, z míst, kde by se žádný ostrov nacházet neměl. Je to místo, kde jsou zvláštní formy života, hory ze zlata, životu nebezpečné sopky a nejedno pozoruhodné tajemství. Nový nevlastní otec Hanka (Dwayne Johnson) není schopen syna zadržet a tak se s ním raději vydá na společnou výpravu. Společně s pilotem helikoptéry (Luis Guzman) a jeho krásnou a rozhodnou dcerou (Vanessa Hudgens), se vydají hledat ostrov, zachránit opuštěné obyvatele ostrova a také uniknout seizmickým vlnám, které tlačí ostrov pod vodu, kde by poklady ostrova byly navždy pohřebeny v moři.



SCREENSHOTS:
Obrázok

KVALITA:
Velikost : 758 MiB
Odkaz na stiahnutie:
Pre zobrazenie odkazov sa musíte alebo



DOWNLOAD:
Obrázok
Odkaz na stiahnutie:
Pre zobrazenie odkazov sa musíte alebo

Obrázok
Odkaz na stiahnutie:
Pre zobrazenie odkazov sa musíte alebo

Obrázok
Odkaz na stiahnutie:
Pre zobrazenie odkazov sa musíte alebo

zdeniatqo
Top Prispievateľ
Top Prispievateľ
 
Príspevky: 353
Registrovaný: Štv Apr 03, 2008 1:28 pm
Has thanked: 2 times
Been thanked: 25 times

Poslaťod zdeniatqo » Pia Feb 24, 2012 10:48 pm

Cesta na tajuplný ostrov 2 / Journey 2: The Mysterious Island (2012) [CAM]

Obrázok
Obrázok

Obrázok
Odkaz na stiahnutie:
Pre zobrazenie odkazov sa musíte alebo

Obrázok
Odkaz na stiahnutie:
Pre zobrazenie odkazov sa musíte alebo

Obrázok 758 MB
"Format : AVI
Format/Info : Audio Video Interleave
File size : 758 MiB
Duration : 1h 26mn
Overall bit rate : 1 222 Kbps
Writing application : MEncoder SVN-r30881(20100311-gcc4.3.3)
Writing library : MPlayer

Video
ID : 0
Format : AVC
Format/Info : Advanced Video Codec
Format profile : High@L3.0
Format settings, CABAC : No
Format settings, ReFrames : 1 frame
Codec ID : avc1
Duration : 1h 26mn
Bit rate : 1 094 Kbps
Width : 720 pixels
Height : 304 pixels
Display aspect ratio : 2.35:1
Frame rate : 23.000 fps
Color space : YUV
Chroma subsampling : 4:2:0
Bit depth : 8 bits
Scan type : Progressive
Bits/(Pixel*Frame) : 0.217
Stream size : 671 MiB (89%)
Writing library : x264 core 80 r1378+57 6f6b50a
Encoding settings : cabac=0 / ref=1 / deblock=1:0:0 / analyse=0x3:0x113 / me=hex / subme=7 / psy=1 / psy_rd=1.0:0.0 / mixed_ref=0 / me_range=16 / chroma_me=1 / trellis=0 / 8x8dct=1 / cqm=0 / deadzone=21,11 / fast_pskip=1 / chroma_qp_offset=-2 / threads=6 / sliced_threads=0 / nr=0 / decimate=1 / mbaff=0 / constrained_intra=0 / bframes=0 / wpredp=2 / keyint=250 / keyint_min=25 / scenecut=40 / rc_lookahead=40 / rc=abr / mbtree=1 / bitrate=1094 / ratetol=1.0 / qcomp=0.60 / qpmin=10 / qpmax=51 / qpstep=4 / ip_ratio=1.40 / aq=1:1.00

Audio
ID : 1
Format : MPEG Audio
Format version : Version 1
Format profile : Layer 3
Mode : Joint stereo
Mode extension : MS Stereo
Codec ID : 55
Codec ID/Hint : MP3
Duration : 1h 26mn
Bit rate mode : Constant
Bit rate : 128 Kbps
Channel(s) : 2 channels
Sampling rate : 44.1 KHz
Compression mode : Lossy
Stream size : 79.4 MiB (10%)
Alignment : Aligned on interleaves
Interleave, duration : 26 ms (0.60 video frame)
Interleave, preload duration : 522 ms
Writing library : LAME3.98
"

Obrázok
Odkaz na stiahnutie:
Pre zobrazenie odkazov sa musíte alebo

single link + 3 % WinRAR recovery
1.staci kliknut na tlacitko Click`n`Load .........Obrázok
2.linky sa Vam nacitaju do Jdownloader alebo Mipony(ak program nemame, treba si doinstalovat, spustit)
3.stahujete zo servera share-online (server je na sposob Hellshare, tz ak nie su volne sloty staci si pockat, pripadne zakupit premium) :)
4.nemame radi captchu? ... Captchatrader pomoze :)

kliestpd
Power User
Power User
 
Príspevky: 607
Registrovaný: Ned Mar 22, 2009 1:48 pm
Has thanked: 0 time
Been thanked: 34 times

Poslaťod kliestpd » Ned Feb 26, 2012 12:38 pm

Obrázok

Cesta na tajuplný ostrov 2/Journey 2: The Mysterious Island (2012)

- CZ dabing ( TS kino verzia )

Obrázok

Obrázok

Obrázok

Odkaz na stiahnutie:
Pre zobrazenie odkazov sa musíte alebo


Obrázok

Akční / Dobrodružný / Rodinný / Fantasy
USA, 2012, 94 min
Režie: Brad Peyton
Hudba: Andrew Lockington
Hrají: Josh Hutcherson, Dwayne Johnson, Michael Caine, Vanessa Anne Hudgens, Luis Guzmán, Kristin Davis

V tomto pokračování celosvětově úspěšného filmu „Journey to the Center of the Earth,“ z roku 2008 nové rodinné dobrodružství filmu „Journey 2: The Mysterious Island“ ve formátu 3D začíná tím, že mladý Sean Anderson (Josh Hutcherson, který hrál v této roli i v předchozím filmu) dostane zakódované tísňové volání ze záhadného ostrova, z míst, kde by se žádný ostrov nacházet neměl. Je to místo, kde jsou zvláštní formy života, hory ze zlata, životu nebezpečné sopky a nejedno pozoruhodné tajemství. Nový nevlastní otec Hanka (Dwayne Johnson) není schopen syna zadržet a tak se s ním raději vydá na společnou výpravu. Společně s pilotem helikoptéry (Luis Guzman) a jeho krásnou a rozhodnou dcerou (Vanessa Hudgens), se vydají hledat ostrov, zachránit opuštěné obyvatele ostrova a také uniknout seizmickým vlnám, které tlačí ostrov pod vodu, kde by poklady ostrova byly navždy pohřebeny v moři.

Obrázok

Odkaz na stiahnutie:
Pre zobrazenie odkazov sa musíte alebo


Obrázok

Odkaz na stiahnutie:
Pre zobrazenie odkazov sa musíte alebo


Obrázok

Odkaz na stiahnutie:
Pre zobrazenie odkazov sa musíte alebo


Obrázok

Odkaz na stiahnutie:
Pre zobrazenie odkazov sa musíte alebo


Obrázok

Odkaz na stiahnutie:
Pre zobrazenie odkazov sa musíte alebo


HESLO: home

Obrázok

Obrázok užívateľa
godmac
Začiatočník
Začiatočník
 
Príspevky: 26
Registrovaný: Štv Dec 04, 2008 1:25 am
Has thanked: 25 times
Been thanked: 1 time

preco ???

Poslaťod godmac » Pon Feb 27, 2012 12:54 am

pre boha preco taketo nieco niekto upne na internet ...strasna kvalita fakt sa na to neda pozerat

Obrázok užívateľa
sailes999
Power User
Power User
 
Príspevky: 446
Registrovaný: Str Jún 29, 2011 2:55 pm
Bydlisko: Slovensko
Has thanked: 71 times
Been thanked: 114 times

Re: preco ???

Poslaťod sailes999 » Str Máj 23, 2012 3:04 pm

Prosím vás uploadne tento film niekto už v dobrej kvalite obrazu i zvuku?
Na ceskej Torent stranke som to tam uz videl a komenty boly na kvalitu velmi dobre len nejde my to odtial stahnut .
Prosim vas nemohol by to niekto hodit sem alebo link mne do PM :-) PlS
Tlačítko "ĎAKUJEM" poteší a teba nezabije tak prosím "klik" :)


Späť na Archív príspevkov [2011-2014]

Kto je on-line

Užívatelia prezerajúci fórum: Žiadny registrovaný užívateľ nie je prítomný a 0 hostia