//


Desert Flower / Púštny kvet / 1080p / EN

Nefunkčné linky, staré nevhodné a zabudnuté témy (presunuté za obdobie 2011-2014)
LuPkO
Top Prispievateľ
Top Prispievateľ
 
Príspevky: 380
Registrovaný: Sob Jún 13, 2009 6:22 am
Has thanked: 1 time
Been thanked: 85 times

Desert Flower / Púštny kvet / 1080p / EN

Poslaťod LuPkO » Pia Jún 11, 2010 9:31 am

Desert Flower / Púštny kvet (2009) 1080p EN 5.1 + CZ Titulky

Obrázok

Obrázok
Desert.Flower.2009.1080p.BluRay.x264-THUGLiNE
Obrázok
Odkaz na stiahnutie:
Pre zobrazenie odkazov sa musíte alebo


Odkaz na stiahnutie:
Pre zobrazenie odkazov sa musíte alebo


Odkaz na stiahnutie:
Pre zobrazenie odkazov sa musíte alebo


Obrázok
Odkaz na stiahnutie:
Pre zobrazenie odkazov sa musíte alebo


Obrázok
Odkaz na stiahnutie:
Pre zobrazenie odkazov sa musíte alebo


Odkaz na stiahnutie:
Pre zobrazenie odkazov sa musíte alebo


Jedná sa o môj upload, nemá heslo a je pridaný 3% záznam na opravu dát.
Naposledy upravil LuPkO dňa Sob Jún 26, 2010 2:19 am, celkovo upravené 1

LuPkO
Top Prispievateľ
Top Prispievateľ
 
Príspevky: 380
Registrovaný: Sob Jún 13, 2009 6:22 am
Has thanked: 1 time
Been thanked: 85 times

Poslaťod LuPkO » Štv Jún 17, 2010 11:03 am

linky obnovene

LuPkO
Top Prispievateľ
Top Prispievateľ
 
Príspevky: 380
Registrovaný: Sob Jún 13, 2009 6:22 am
Has thanked: 1 time
Been thanked: 85 times

Poslaťod LuPkO » Sob Jún 26, 2010 2:19 am

linky opat obnovene, nemozne kombinovat s predoslimi

Bodas
Moj prvý príspevok !
Moj prvý príspevok !
 
Príspevky: 1
Registrovaný: Uto Feb 03, 2009 4:19 am
Has thanked: 0 time
Been thanked: 0 time

Poslaťod Bodas » Sob Sep 11, 2010 1:50 am

nefunguju linky 39-46

MiPe
Excellent User
Excellent User
 
Príspevky: 804
Registrovaný: Štv Aug 26, 2010 11:29 am
Has thanked: 0 time
Been thanked: 1106 times

Poslaťod MiPe » Pia Máj 13, 2011 7:38 am

Obrázok
Květ pouště / Desert Flower (2009)

Obrázok
Obrázok

Obrázok

Odkaz na stiahnutie:
Pre zobrazenie odkazov sa musíte alebo


Obrázok

Obrázok
Odkaz na stiahnutie:
Pre zobrazenie odkazov sa musíte alebo

Obrázok
Odkaz na stiahnutie:
Pre zobrazenie odkazov sa musíte alebo

Obrázok
Odkaz na stiahnutie:
Pre zobrazenie odkazov sa musíte alebo

lapepa
Gold User
Gold User
 
Príspevky: 1823
Registrovaný: Str Sep 01, 2010 10:44 am
Has thanked: 1 time
Been thanked: 134 times

Poslaťod lapepa » Pia Máj 13, 2011 10:24 am

Květ pouště / Desert Flower (2009) / 720p / 5.1 CZ / 5.1 EN
Obrázok

Obrázok
Odkaz na stiahnutie:
Pre zobrazenie odkazov sa musíte alebo



Obrázok
GENERAL 720p CZ
Format : Matroska
File size : 6.96 GiB
Duration : 2h 7mn
Overall bit rate : 7 803 Kbps

Writing library : libebml v1.2.0 + libmatroska v1.1.0

Video
ID : 1
Format : AVC
Format/Info : Advanced Video Codec
Format profile : High@L4.1
Format settings, CABAC : Yes
Format settings, ReFrames : 5 frames
Muxing mode : Header stripping
Codec ID : V_MPEG4/ISO/AVC
Duration : 2h 7mn
Bit rate : 5 845 Kbps
Width : 1 280 pixels
Height : 688 pixels
Display aspect ratio : 1.860
Frame rate : 24.000 fps
Color space : YUV
Chroma subsampling : 4:2:0
Bit depth : 8 bits
Scan type : Progressive
Bits/(Pixel*Frame) : 0.277
Stream size : 5.07 GiB (73%)
Writing library : x264 core 93 r1538 bd72d46
Encoding settings : cabac=1 / ref=5 / deblock=1:0:0 / analyse=0x3:0x133 / me=umh / subme=7 / psy=1 / psy_rd=1.00:0.00 / mixed_ref=1 / me_range=16 / chroma_me=1 / trellis=1 / 8x8dct=1 / cqm=0 / deadzone=21,11 / fast_pskip=0 / chroma_qp_offset=-2 / threads=12 / sliced_threads=0 / nr=0 / decimate=1 / interlaced=0 / constrained_intra=0 / bframes=3 / b_pyramid=2 / b_adapt=1 / b_bias=0 / direct=1 / wpredb=1 / wpredp=2 / keyint=250 / keyint_min=25 / scenecut=40 / intra_refresh=0 / rc_lookahead=40 / rc=2pass / mbtree=1 / bitrate=5845 / ratetol=1.0 / qcomp=0.60 / qpmin=10 / qpmax=51 / qpstep=4 / cplxblur=20.0 / qblur=0.5 / ip_ratio=1.40 / aq=1:1.00
Language : English

Audio #1
ID : 2
Format : AC-3
Format/Info : Audio Coding 3
Mode extension : CM (complete main)
Muxing mode : Header stripping
Codec ID : A_AC3
Duration : 2h 7mn
Bit rate mode : Constant
Bit rate : 448 Kbps
Channel(s) : 6 channels
Channel positions : Front: L C R, Side: L R, LFE
Sampling rate : 48.0 KHz
Bit depth : 16 bits
Compression mode : Lossy
Stream size : 409 MiB (6%)
Language : Czech

Audio #2
ID : 3
Format : DTS
Format/Info : Digital Theater Systems
Muxing mode : Header stripping
Codec ID : A_DTS
Duration : 2h 7mn
Bit rate mode : Constant
Bit rate : 1 510 Kbps
Channel(s) : 6 channels
Channel positions : Front: L C R, Side: L R, LFE
Sampling rate : 48.0 KHz
Bit depth : 16 bits
Compression mode : Lossy
Stream size : 1.35 GiB (19%)
Language : English

Text
ID : 4
Format : UTF-8
Codec ID : S_TEXT/UTF8
Codec ID/Info : UTF-8 Plain Text
Language : Czech



Obrázok
Obrázok
Odkaz na stiahnutie:
Pre zobrazenie odkazov sa musíte alebo


Obrázok
Obrázok
Odkaz na stiahnutie:
Pre zobrazenie odkazov sa musíte alebo

-=crazzy=-
Top Prispievateľ
Top Prispievateľ
 
Príspevky: 250
Registrovaný: Ned Jún 20, 2010 5:59 pm
Has thanked: 0 time
Been thanked: 17 times

Poslaťod -=crazzy=- » Pia Máj 13, 2011 3:52 pm

Názov: Květ pouště / Desert Flower (2009)

Obrázok

Obrázok
Odkaz na stiahnutie:
Pre zobrazenie odkazov sa musíte alebo


Dabing: Český
Natočený v: Veľká Británia / Nemecko / Rakúsko, 2009
Žáner: Dráma / Životopisný
Dĺžka: 130 min
Réžia: Sherry Horman
Hrajú: Liya Kebede, Sally Hawkins, Meera Syal, Anthony Mackie, Juliet Stevenson, Timothy Spall, Teresa Churcher

Obrázok
Odkaz na stiahnutie:
Pre zobrazenie odkazov sa musíte alebo


Obrázok
Odkaz na stiahnutie:
Pre zobrazenie odkazov sa musíte alebo


Obrázok


Obrázok
Odkaz na stiahnutie:
Pre zobrazenie odkazov sa musíte alebo


Obrázok
Odkaz na stiahnutie:
Pre zobrazenie odkazov sa musíte alebo


Obrázok
Odkaz na stiahnutie:
Pre zobrazenie odkazov sa musíte alebo


Obrázok
No!!!

LuPkO
Top Prispievateľ
Top Prispievateľ
 
Príspevky: 380
Registrovaný: Sob Jún 13, 2009 6:22 am
Has thanked: 1 time
Been thanked: 85 times

Poslaťod LuPkO » Ned Máj 15, 2011 1:03 pm

Obrázok

Obrázok

Obrázok
Odkaz na stiahnutie:
Pre zobrazenie odkazov sa musíte alebo


Odkaz na stiahnutie:
Pre zobrazenie odkazov sa musíte alebo


Obrázok
Obrázok
Desert.Flower.2009.1080p.BluRay.x264-THUGLiNE

Odkaz na stiahnutie:
Pre zobrazenie odkazov sa musíte alebo


Obrázok
Odkaz na stiahnutie:
Pre zobrazenie odkazov sa musíte alebo

Obrázok

900 MB parts
Netload.in
Odkaz na stiahnutie:
Pre zobrazenie odkazov sa musíte alebo

Filesonic.com
Odkaz na stiahnutie:
Pre zobrazenie odkazov sa musíte alebo

Share-Rapid.com
Odkaz na stiahnutie:
Pre zobrazenie odkazov sa musíte alebo

HellShare.com
Odkaz na stiahnutie:
Pre zobrazenie odkazov sa musíte alebo

uploading.up
Excellent User
Excellent User
 
Príspevky: 1080
Registrovaný: Pon Jan 17, 2011 2:42 am
Has thanked: 0 time
Been thanked: 82 times

Poslaťod uploading.up » Ned Máj 15, 2011 9:42 pm

Desert Flower / Květ pouště / CZ, EN
Desert.flower.2009.720p.bluray.x264-.CZ - EN

Obrázok

Odkaz na stiahnutie:
Pre zobrazenie odkazov sa musíte alebo


Drama / Životopisný
Velká Británie / Německo / Rakousko, 2009


Film Květ pouště vznikl podle stejnojmenné autobiografické knihy autorky Waris Dirie, která vyrůstala do svých třinácti let v Somálsku a po útěku do Londýna se stala jednou z nejznámějších světových topmodelek. Když se kniha v roce 1998 objevila na pultech knihkupectví, svět byl šokován. Bývalá modelka vypráví dechberoucí životní příběh, v němž popisuje svou neuvěřitelnou cestu od kočovného života v somálské poušti na nejznámější světová přehlídková mola. Byl to sen a noční můra zároveň. V New Yorku, na vrcholu své kariéry, poprvé v rozhovoru otevřeně promluvila o problému ženské obřízky, kterou sama vytrpěla, když jí bylo teprve 5 let. Krátce po rozhovoru se rozhodla, že skončí s kariérou modelky a zasvětí život boji proti tomuto starobylému rituálu. Od roku 1997 je Velvyslankyní UNFPA (United Nations Population Fund) pro odstranění problému ženské obřízky ve světě.

Format : Matroska at 7 803 Kbps
Length : 6,96 GiB for 2h 7mn 39s 894ms

Video #0 : AVC at 5 845 Kbps
Aspect : 1280 x 688 (1.860) at 24.000 fps

Audio #0 : AC-3 at 448 Kbps
Infos : 6 kanály, 48,0 KHz
Language : cs

Audio #1 : DTS at 1 510 Kbps
Infos : 6 kanály, 48,0 KHz
Language : en



Desert.flower.2009.720p.bluray.x264-.CZ - EN //1GB links, kombinovatelne//

Fileserve:
Odkaz na stiahnutie:
Pre zobrazenie odkazov sa musíte alebo


Filesonic:
Odkaz na stiahnutie:
Pre zobrazenie odkazov sa musíte alebo



Odkaz na stiahnutie:
Pre zobrazenie odkazov sa musíte alebo


Späť na Archív príspevkov [2011-2014]

Kto je on-line

Užívatelia prezerajúci fórum: Žiadny registrovaný užívateľ nie je prítomný a 0 hostia