Harry Potter a Relikvie smrti - část 2 / Harry Potter (2011)

Filmy v HD formáte, dabované zahraničné filmy, slovenská a česká produkcia
jazim004
Power User
Power User
 
Príspevky: 704
Registrovaný: Ned Jún 12, 2011 5:35 pm
Has thanked: 0 time
Been thanked: 983 times

Harry Potter a Relikvie smrti - část 2 / Harry Potter (2011)

Poslaťod jazim004 » Str Nov 09, 2011 5:55 pm

Harry.Potter.And.The.Deathly.Hallows.Part.2.2011.1080p.Bluray.x264-MaxHD.CZ.SK-LEADERs

Obrázok

CSFD:

Kód: Vybrať všetko
Pre zobrazenie odkazov sa musíte alebo


RLS iNFO
Kód: Vybrať všetko
Pre zobrazenie odkazov sa musíte alebo


HELLSHARE
Kód: Vybrať všetko
Pre zobrazenie odkazov sa musíte alebo


SHARE-RAPID
Kód: Vybrať všetko
Pre zobrazenie odkazov sa musíte alebo


EUROSHARE
Kód: Vybrať všetko
Pre zobrazenie odkazov sa musíte alebo


NETLOAD
Kód: Vybrať všetko
Pre zobrazenie odkazov sa musíte alebo
Naposledy upravil jazim004 dňa Pia Nov 11, 2011 5:49 am, celkovo upravené 1

lapepa
Gold User
Gold User
 
Príspevky: 1823
Registrovaný: Str Sep 01, 2010 10:44 am
Has thanked: 1 time
Been thanked: 134 times

Poslaťod lapepa » Str Nov 09, 2011 8:18 pm

Harry Potter and the Deathly Hallows: Part 2 (2011) / 720p + 1080p / CZ

Obrázok

Obrázok
Kód: Vybrať všetko
Pre zobrazenie odkazov sa musíte alebo



Obrázok
GENERAL 1080p CZ
FORMAT : Matroska
CODEC : Matroska / High@L4.1 / V_MPEG4/ISO/AVC
RESOLUTiON : 1920x800
OVERALL : 12.8 Mbps
ViDEO : 10.5 Mbps
AUDiO : 384 Kbps AC3 6CH / DTS 1510 Kbps 6CH
LANGUAGE : Czech , Slovak , English
SUBTiTLES : Czech
SiZE : 11.6 GB




Obrázok
Kód: Vybrať všetko
Pre zobrazenie odkazov sa musíte alebo



Obrázok
Kód: Vybrať všetko
Pre zobrazenie odkazov sa musíte alebo


Obrázok
Kód: Vybrať všetko
Pre zobrazenie odkazov sa musíte alebo



Obrázok
GENERAL 720p CZ
Format : Matroska

File size : 6.35 GiB
Duration : 2h 10mn
Overall bit rate : 6 966 Kbps
0

Video
ID : 1
Format : AVC
Format/Info : Advanced Video Codec
Format profile : High@L4.1
Format settings, CABAC : Yes
Format settings, ReFrames : 12 frames
Codec ID : V_MPEG4/ISO/AVC
Duration : 2h 10mn
Bit rate : 4 688 Kbps
Width : 1 280 pixels
Height : 534 pixels
Display aspect ratio : 2.40:1
Frame rate : 23.976 fps
Color space : YUV
Chroma subsampling : 4:2:0
Bit depth : 8 bits
Scan type : Progressive
Bits/(Pixel*Frame) : 0.286
Stream size : 4.15 GiB (65%)

Encoding settings : cabac=1 / ref=12 / deblock=1:-3:-3 / analyse=0x3:0x113 / me=tesa / subme=11 / psy=1 / psy_rd=0.96:0.04 / mixed_ref=1 / me_range=48 / chroma_me=1 / trellis=2 / 8x8dct=1 / cqm=0 / deadzone=21,11 / fast_pskip=0 / chroma_qp_offset=-3 / threads=12 / sliced_threads=0 / nr=0 / decimate=1 / interlaced=0 / bluray_compat=0 / constrained_intra=0 / bframes=6 / b_pyramid=2 / b_adapt=2 / b_bias=0 / direct=3 / weightb=1 / open_gop=0 / weightp=2 / keyint=250 / keyint_min=23 / scenecut=40 / intra_refresh=0 / rc_lookahead=80 / rc=2pass / mbtree=1 / bitrate=4688 / ratetol=1.0 / qcomp=0.60 / qpmin=0 / qpmax=69 / qpstep=4 / cplxblur=20.0 / qblur=0.5 / vbv_maxrate=40000 / vbv_bufsize=40000 / nal_hrd=none / ip_ratio=1.37 / aq=2:0.90 / zones=169800,187658,b=0.1
Language : English

Audio #1
ID : 2
Format : AC-3
Format/Info : Audio Coding 3
Mode extension : CM (complete main)
Codec ID : A_AC3
Duration : 2h 10mn
Bit rate mode : Constant
Bit rate : 384 Kbps
Channel(s) : 6 channels
Channel positions : Front: L C R, Side: L R, LFE
Sampling rate : 48.0 KHz
Bit depth : 16 bits
Compression mode : Lossy
Stream size : 358 MiB (6%)
Language : Czech

Audio #2
ID : 3
Format : AC-3
Format/Info : Audio Coding 3
Mode extension : CM (complete main)
Codec ID : A_AC3
Duration : 2h 10mn
Bit rate mode : Constant
Bit rate : 384 Kbps
Channel(s) : 6 channels
Channel positions : Front: L C R, Side: L R, LFE
Sampling rate : 48.0 KHz
Bit depth : 16 bits
Compression mode : Lossy
Stream size : 358 MiB (6%)
Language : Slovak

Audio #3
ID : 4
Format : DTS
Format/Info : Digital Theater Systems
Codec ID : A_DTS
Duration : 2h 10mn
Bit rate mode : Constant
Bit rate : 1 510 Kbps
Channel(s) : 6 channels
Channel positions : Front: L C R, Side: L R, LFE
Sampling rate : 48.0 KHz
Bit depth : 24 bits
Compression mode : Lossy
Stream size : 1.38 GiB (22%)
Language : English

Text #1
ID : 5
Format : UTF-8
Codec ID : S_TEXT/UTF8
Codec ID/Info : UTF-8 Plain Text
Language : English

Text #2
ID : 6
Format : UTF-8
Codec ID : S_TEXT/UTF8
Codec ID/Info : UTF-8 Plain Text
Language : Czech

Text #3
ID : 7
Format : UTF-8
Codec ID : S_TEXT/UTF8
Codec ID/Info : UTF-8 Plain Text
Language : Slovak




Obrázok
Kód: Vybrať všetko
Pre zobrazenie odkazov sa musíte alebo



Obrázok
Kód: Vybrať všetko
Pre zobrazenie odkazov sa musíte alebo



Obrázok
Kód: Vybrať všetko
Pre zobrazenie odkazov sa musíte alebo
Naposledy upravil lapepa dňa Štv Nov 10, 2011 1:57 pm, celkovo upravené 2

rAndom007
Top Prispievateľ
Top Prispievateľ
 
Príspevky: 308
Registrovaný: Pon Aug 29, 2011 7:22 pm
Has thanked: 0 time
Been thanked: 41 times

Poslaťod rAndom007 » Str Nov 09, 2011 8:48 pm

Name:Harry Potter a Relikvie smrti - část 2 / Harry Potter (2011)
Rls:Harry.Potter.And.The.Deathly.Hallows.Part.2.2011.1080p.Bluray.x264-MaxHD.CZ.SK-LEADERs


Obrázok

CSFD:
Kód: Vybrať všetko
Pre zobrazenie odkazov sa musíte alebo


INFO:
Kód: Vybrať všetko
Pre zobrazenie odkazov sa musíte alebo


HELLSHARE >>>
Kód: Vybrať všetko
Pre zobrazenie odkazov sa musíte alebo


SHARE-RAPID >>>
Kód: Vybrať všetko
Pre zobrazenie odkazov sa musíte alebo


FILESERVE >>>
Kód: Vybrať všetko
Pre zobrazenie odkazov sa musíte alebo
Naposledy upravil rAndom007 dňa Štv Nov 10, 2011 12:47 am, celkovo upravené 1

justinlee_2010
Power User
Power User
 
Príspevky: 690
Registrovaný: Str Apr 13, 2011 1:13 am
Has thanked: 2 times
Been thanked: 43 times

Poslaťod justinlee_2010 » Str Nov 09, 2011 8:49 pm

Harry Potter and the Deathly Hallows: Part 2 / 2011 / 720p+1080p / DTS EN 5.1 / DD 5.1 CZ SK

Obrázok

Obrázok
Kód: Vybrať všetko
Pre zobrazenie odkazov sa musíte alebo

Dobrodružný / Drama / Rodinný / Fantasy
Velká Británie / USA, 2011
Režie:
David Yates
Hudba:
Alexandre Desplat
Hrají:
Daniel Radcliffe, Emma Watson, Rupert Grint, Helena Bonham Carter, Bonnie Wright, Maggie Smith, Evanna Lynch, Robbie Coltrane, Alan Rickman, Geraldine Somerville, Natalia Tena, Kelly Macdonald, Tom Felton, Emma Thompson, Ralph Fiennes, Michael Gambon, Gary Oldman, Jason Isaacs, Domhnall Gleeson, John Hurt, Ciarán Hinds, David Thewlis, Clémence Poésy, Helen McCrory, Jim Broadbent, Julie Walters, James Phelps, Matthew Lewis, Oliver Phelps, Jessie Cave, Miriam Margolyes, Mark Williams, Adrian Rawlins, Nick Moran, Sean Biggerstaff, Warwick Davis, Katie Leung, Gemma Jones, Scarlett Byrne, Anna Shaffer, Isabella Laughland, Chris Rankin, Devon Murray, Louis Cordice, Josh Herdman, Ryan Turner, Alfie Enoch, Afshan Azad, Guy Henry, David Bradley, Georgina Leonidas, Freddie Stroma, Robbie Jarvis, Emil Hostina, George Harris, William Melling, Arthur Bowen, Daphne de Beistegui, Helena Barlow, Dave Legeno


Přichází poslední dobrodružství ságy o Harry Potterovi. V tomto výpravném finále eskaluje bitva mezi dobrem a zlem do otevřené války čarodějného světa. Nikdy nebylo v sázce tolik jako teď. Nikdo už není v bezpečí. Je to ale Harry Potter, kdo možná bude muset podstoupit oběť největší, když se přiblíží rozhodující bitva s Lordem Voldemortem. Tady všechno končí


Obrázok
RLS:Harry.Potter.and.the.Deathly.Hallows.Part.2.2011.720p.BluRay.DTS.x264-HiDt-CZ.SK
Format : Matroska
Format version : Version 2
File size : 6.35 GiB
Duration : 2h 10mn
Overall bit rate : 6 966 Kbps
Encoded date : UTC 2011-11-09 20:01:01
Writing application : mkvmerge v4.0.0 ('The Stars were mine') built on Jun 6 2010 16:18:42
Writing library : libebml v1.0.0 + libmatroska v1.0.0

Video
ID : 1
Format : AVC
Format/Info : Advanced Video Codec
Format profile : High@L4.1
Format settings, CABAC : Yes
Format settings, ReFrames : 12 frames
Codec ID : V_MPEG4/ISO/AVC
Duration : 2h 10mn
Bit rate : 4 688 Kbps
Width : 1 280 pixels
Height : 534 pixels
Display aspect ratio : 2.40:1
Frame rate : 23.976 fps
Color space : YUV
Chroma subsampling : 4:2:0
Bit depth : 8 bits
Scan type : Progressive
Bits/(Pixel*Frame) : 0.286
Stream size : 4.15 GiB (65%)
Writing library : x264 core 119 r2106 07efeb4
Encoding settings : cabac=1 / ref=12 / deblock=1:-3:-3 / analyse=0x3:0x113 / me=tesa / subme=11 / psy=1 / psy_rd=0.96:0.04 / mixed_ref=1 / me_range=48 / chroma_me=1 / trellis=2 / 8x8dct=1 / cqm=0 / deadzone=21,11 / fast_pskip=0 / chroma_qp_offset=-3 / threads=12 / sliced_threads=0 / nr=0 / decimate=1 / interlaced=0 / bluray_compat=0 / constrained_intra=0 / bframes=6 / b_pyramid=2 / b_adapt=2 / b_bias=0 / direct=3 / weightb=1 / open_gop=0 / weightp=2 / keyint=250 / keyint_min=23 / scenecut=40 / intra_refresh=0 / rc_lookahead=80 / rc=2pass / mbtree=1 / bitrate=4688 / ratetol=1.0 / qcomp=0.60 / qpmin=0 / qpmax=69 / qpstep=4 / cplxblur=20.0 / qblur=0.5 / vbv_maxrate=40000 / vbv_bufsize=40000 / nal_hrd=none / ip_ratio=1.37 / aq=2:0.90 / zones=169800,187658,b=0.1
Language : English

Audio #1
ID : 2
Format : AC-3
Format/Info : Audio Coding 3
Mode extension : CM (complete main)
Codec ID : A_AC3
Duration : 2h 10mn
Bit rate mode : Constant
Bit rate : 384 Kbps
Channel(s) : 6 channels
Channel positions : Front: L C R, Side: L R, LFE
Sampling rate : 48.0 KHz
Bit depth : 16 bits
Compression mode : Lossy
Stream size : 358 MiB (6%)
Language : Czech

Audio #2
ID : 3
Format : AC-3
Format/Info : Audio Coding 3
Mode extension : CM (complete main)
Codec ID : A_AC3
Duration : 2h 10mn
Bit rate mode : Constant
Bit rate : 384 Kbps
Channel(s) : 6 channels
Channel positions : Front: L C R, Side: L R, LFE
Sampling rate : 48.0 KHz
Bit depth : 16 bits
Compression mode : Lossy
Stream size : 358 MiB (6%)
Language : Slovak

Audio #3
ID : 4
Format : DTS
Format/Info : Digital Theater Systems
Codec ID : A_DTS
Duration : 2h 10mn
Bit rate mode : Constant
Bit rate : 1 510 Kbps
Channel(s) : 6 channels
Channel positions : Front: L C R, Side: L R, LFE
Sampling rate : 48.0 KHz
Bit depth : 24 bits
Compression mode : Lossy
Stream size : 1.38 GiB (22%)
Language : English

Text #1
ID : 5
Format : UTF-8
Codec ID : S_TEXT/UTF8
Codec ID/Info : UTF-8 Plain Text
Language : English

Text #2
ID : 6
Format : UTF-8
Codec ID : S_TEXT/UTF8
Codec ID/Info : UTF-8 Plain Text
Language : Czech

Text #3
ID : 7
Format : UTF-8
Codec ID : S_TEXT/UTF8
Codec ID/Info : UTF-8 Plain Text
Language : Slovak


Obrázok

Obrázok
Kód: Vybrať všetko
Pre zobrazenie odkazov sa musíte alebo


Obrázok

Obrázok
Kód: Vybrať všetko
Pre zobrazenie odkazov sa musíte alebo


Obrázok
RLS:Harry.Potter.And.The.Deathly.Hallows.Part.2.2011.1080p.Bluray.x264-MaxHD.CZ.SK-LEADERs
Format : Matroska
Format version : Version 2
File size : 11.6 GiB
Duration : 2h 10mn
Overall bit rate : 12.8 Mbps
Movie name : Harry.Potter.And.The.Deathly.Hallows.Part.2.2011.1080p.Bluray.x264-MaxHD
Encoded date : UTC 2011-11-08 21:06:03
Writing application : mkvmerge v5.0.1 ('Es ist Sommer') built on Oct 9 2011 11:55:43
Writing library : libebml v1.2.2 + libmatroska v1.3.0

Video
ID : 1
Format : AVC
Format/Info : Advanced Video Codec
Format profile : High@L4.1
Format settings, CABAC : Yes
Format settings, ReFrames : 5 frames
Codec ID : V_MPEG4/ISO/AVC
Duration : 2h 10mn
Bit rate : 10.5 Mbps
Width : 1 920 pixels
Height : 800 pixels
Display aspect ratio : 2.40:1
Frame rate : 23.976 fps
Color space : YUV
Chroma subsampling : 4:2:0
Bit depth : 8 bits
Scan type : Progressive
Bits/(Pixel*Frame) : 0.285
Stream size : 9.33 GiB (80%)
Title : Harry.Potter.And.The.Deathly.Hallows.Part.2.2011.1080p.Bluray.x264-MaxHD
Writing library : x264 core 119 r2106 07efeb4
Encoding settings : cabac=1 / ref=5 / deblock=1:0:0 / analyse=0x3:0x133 / me=umh / subme=7 / psy=1 / psy_rd=1.00:0.00 / mixed_ref=1 / me_range=16 / chroma_me=1 / trellis=1 / 8x8dct=1 / cqm=0 / deadzone=21,11 / fast_pskip=0 / chroma_qp_offset=-2 / threads=12 / sliced_threads=0 / nr=0 / decimate=1 / interlaced=0 / bluray_compat=0 / constrained_intra=0 / bframes=3 / b_pyramid=2 / b_adapt=2 / b_bias=0 / direct=3 / weightb=1 / open_gop=0 / weightp=2 / keyint=250 / keyint_min=23 / scenecut=40 / intra_refresh=0 / rc_lookahead=50 / rc=2pass / mbtree=1 / bitrate=10491 / ratetol=1.0 / qcomp=0.60 / qpmin=0 / qpmax=69 / qpstep=4 / cplxblur=20.0 / qblur=0.5 / ip_ratio=1.40 / aq=1:1.00
Language : English

Audio #1
ID : 2
Format : AC-3
Format/Info : Audio Coding 3
Mode extension : CM (complete main)
Codec ID : A_AC3
Duration : 2h 10mn
Bit rate mode : Constant
Bit rate : 384 Kbps
Channel(s) : 6 channels
Channel positions : Front: L C R, Side: L R, LFE
Sampling rate : 48.0 KHz
Bit depth : 16 bits
Compression mode : Lossy
Stream size : 358 MiB (3%)
Title : cz
Language : Czech

Audio #2
ID : 3
Format : AC-3
Format/Info : Audio Coding 3
Mode extension : CM (complete main)
Codec ID : A_AC3
Duration : 2h 10mn
Bit rate mode : Constant
Bit rate : 384 Kbps
Channel(s) : 6 channels
Channel positions : Front: L C R, Side: L R, LFE
Sampling rate : 48.0 KHz
Bit depth : 16 bits
Compression mode : Lossy
Stream size : 358 MiB (3%)
Title : sk
Language : Slovak

Audio #3
ID : 4
Format : DTS
Format/Info : Digital Theater Systems
Codec ID : A_DTS
Duration : 2h 10mn
Bit rate mode : Constant
Bit rate : 1 510 Kbps
Channel(s) : 6 channels
Channel positions : Front: L C R, Side: L R, LFE
Sampling rate : 48.0 KHz
Bit depth : 24 bits
Compression mode : Lossy
Stream size : 1.38 GiB (12%)
Title : DTS EN@1,5Mb/s
Language : English

Text
ID : 5
Format : UTF-8
Codec ID : S_TEXT/UTF8
Codec ID/Info : UTF-8 Plain Text
Title : cz titulky
Language : Czech


Obrázok

Obrázok
Kód: Vybrať všetko
Pre zobrazenie odkazov sa musíte alebo


Obrázok

Obrázok
Kód: Vybrať všetko
Pre zobrazenie odkazov sa musíte alebo


Obrázok
Naposledy upravil justinlee_2010 dňa Štv Nov 10, 2011 4:00 pm, celkovo upravené 1

mikkec
Power User
Power User
 
Príspevky: 464
Registrovaný: Pia Máj 21, 2010 2:54 pm
Has thanked: 0 time
Been thanked: 90 times

Poslaťod mikkec » Str Nov 09, 2011 11:09 pm

Harry.Potter.and.the.Deathly.Hallows.Part.2.2011.1080p.BluRay.DTS.x264-HiDt-CZ.SK
Obrázok
Info:
Kód: Vybrať všetko
Pre zobrazenie odkazov sa musíte alebo


Kvalita:
Kód: Vybrať všetko
Pre zobrazenie odkazov sa musíte alebo

SAMPLE:
Kód: Vybrať všetko
Pre zobrazenie odkazov sa musíte alebo


Download:
Kód: Vybrať všetko
Pre zobrazenie odkazov sa musíte alebo


nebo:
Kód: Vybrať všetko
Pre zobrazenie odkazov sa musíte alebo
Naposledy upravil mikkec dňa Štv Nov 10, 2011 7:15 pm, celkovo upravené 2

mikkec
Power User
Power User
 
Príspevky: 464
Registrovaný: Pia Máj 21, 2010 2:54 pm
Has thanked: 0 time
Been thanked: 90 times

Poslaťod mikkec » Str Nov 09, 2011 11:51 pm

Harry.Potter.and.the.Deathly.Hallows.Part.2.2011.720p.BluRay.DTS.x264-HiDt-CZ.SK
Obrázok
Info:
Kód: Vybrať všetko
Pre zobrazenie odkazov sa musíte alebo


Kvalita:
Kód: Vybrať všetko
Pre zobrazenie odkazov sa musíte alebo

SAMPLE:
Kód: Vybrať všetko
Pre zobrazenie odkazov sa musíte alebo


Download:
Kód: Vybrať všetko
Pre zobrazenie odkazov sa musíte alebo


nebo:
Kód: Vybrať všetko
Pre zobrazenie odkazov sa musíte alebo
Naposledy upravil mikkec dňa Štv Nov 10, 2011 11:14 am, celkovo upravené 1

g0ldmaster
Gold User
Gold User
 
Príspevky: 1237
Registrovaný: Ned Apr 10, 2011 11:09 pm
Has thanked: 1 time
Been thanked: 128 times

Poslaťod g0ldmaster » Štv Nov 10, 2011 2:51 am

Harry.Potter.And.The.Deathly.Hallows.Part.2.2011.1080p.Bluray.x264-MaxHD.CZ.SK-LEADERs
Harry Potter a Relikvie smrti - část 2 / Harry Potter (2011)

Obrázok

Obrázok
Kód: Vybrať všetko
Pre zobrazenie odkazov sa musíte alebo

Kód: Vybrať všetko
Pre zobrazenie odkazov sa musíte alebo


Obrázok
Kód: Vybrať všetko
Pre zobrazenie odkazov sa musíte alebo

Kód: Vybrať všetko
Pre zobrazenie odkazov sa musíte alebo

Kód: Vybrať všetko
Pre zobrazenie odkazov sa musíte alebo

Kód: Vybrať všetko
Pre zobrazenie odkazov sa musíte alebo

Kód: Vybrať všetko
Pre zobrazenie odkazov sa musíte alebo

Kód: Vybrať všetko
Pre zobrazenie odkazov sa musíte alebo


Obrázok

pocitac10
Power User
Power User
 
Príspevky: 774
Registrovaný: Pia Júl 17, 2009 7:21 pm
Has thanked: 14 times
Been thanked: 76 times

Poslaťod pocitac10 » Štv Nov 10, 2011 7:01 am

Harry Potter and the Deathly Hallows: Part 2 (2011) CZ a SK

Obrázok

Obrázok

Kód: Vybrať všetko
Pre zobrazenie odkazov sa musíte alebo


Informacie o filme

SiZE : 11.6 GB
SOURCE : Harry.Potter.And.The.Deathly.Hallows.Part.2.2011.1080p.Bluray.x264-MaxHD
DURATiON : 02:10:26 [HH:MM:SS]
FORMAT : Matroska
CODEC : Matroska / High@L4.1 / V_MPEG4/ISO/AVC
RESOLUTiON : 1920x800
OVERALL : 12.8 Mbps
ViDEO : 10.5 Mbps
AUDiO : 384 Kbps AC3 6CH / DTS 1510 Kbps 6CH
LANGUAGE : Czech , Slovak , English
SUBTiTLES : Czech

Obrázok
Kód: Vybrať všetko
Pre zobrazenie odkazov sa musíte alebo


Obrázok
Kód: Vybrať všetko
Pre zobrazenie odkazov sa musíte alebo


Linky mozno lubovolne kombinovat

Obrázok Klikni na odkaz a zarabaj
Kód: Vybrať všetko
Pre zobrazenie odkazov sa musíte alebo
Naposledy upravil pocitac10 dňa Uto Apr 17, 2012 5:37 am, celkovo upravené 8

99majo99
Prispievateľ
Prispievateľ
 
Príspevky: 160
Registrovaný: Ned Nov 07, 2010 4:31 pm
Has thanked: 0 time
Been thanked: 4 times

Re: Harry Potter a Relikvie smrti - část 2 / Harry Potter (2

Poslaťod 99majo99 » Štv Nov 10, 2011 12:34 pm

Harry.Potter.And.The.Deathly.Hallows.Part.2.2011.1080p.Bluray.x264-MaxHD.CZ.SK-LEADERs

Obrázok

CSFD:

http://www.csfd.cz/film/239950/

RLS iNFO
Kód: Vybrať všetko
Pre zobrazenie odkazov sa musíte alebo


SHARE-RAPID
Kód: Vybrať všetko
Pre zobrazenie odkazov sa musíte alebo

D4rR
Power User
Power User
 
Príspevky: 552
Registrovaný: Štv Dec 30, 2010 4:43 am
Has thanked: 0 time
Been thanked: 117 times

Poslaťod D4rR » Štv Nov 10, 2011 6:18 pm

Obrázok

Harry Potter a Relikvie smrti: část 2 / Harry Potter and the Deathly Hallows: Part 2 (2011)

Obrázok

Obrázok

Obrázok

Kód: Vybrať všetko
Pre zobrazenie odkazov sa musíte alebo

Obrázok Obrázok Obrázok Obrázok Obrázok


SAMPLE
Kód: Vybrať všetko
Pre zobrazenie odkazov sa musíte alebo




Obrázok


Obrázok
Kód: Vybrať všetko
Pre zobrazenie odkazov sa musíte alebo

Obrázok
Kód: Vybrať všetko
Pre zobrazenie odkazov sa musíte alebo

Obrázok
Kód: Vybrať všetko
Pre zobrazenie odkazov sa musíte alebo

Obrázok
Kód: Vybrať všetko
Pre zobrazenie odkazov sa musíte alebo



===================================================================================================================
===================================================================================================================


Obrázok

Kód: Vybrať všetko
Pre zobrazenie odkazov sa musíte alebo

Obrázok Obrázok Obrázok Obrázok Obrázok


SAMPLE
Kód: Vybrať všetko
Pre zobrazenie odkazov sa musíte alebo




Obrázok


Obrázok
Kód: Vybrať všetko
Pre zobrazenie odkazov sa musíte alebo

Obrázok
Kód: Vybrať všetko
Pre zobrazenie odkazov sa musíte alebo

Obrázok
Kód: Vybrať všetko
Pre zobrazenie odkazov sa musíte alebo

Obrázok
Kód: Vybrať všetko
Pre zobrazenie odkazov sa musíte alebo
Naposledy upravil D4rR dňa Pia Nov 11, 2011 12:28 am, celkovo upravené 1

Obrázok užívateľa
pablos33
Gold User
Gold User
 
Príspevky: 1331
Registrovaný: Štv Feb 25, 2010 11:50 am
Has thanked: 7 times
Been thanked: 258 times

Poslaťod pablos33 » Štv Nov 10, 2011 8:29 pm

Harry Potter a Relikvie smrti: část 2 / Harry Potter and the Deathly Hallows: Part 2 (2011)

Harry.Potter.And.The.Deathly.Hallows.Part.2.2011.1080p.Bluray.x264-MaxHD.CZ.SK-LEADERs

Obrázok

C S F D
Kód: Vybrať všetko
Pre zobrazenie odkazov sa musíte alebo


SOURCE : Harry.Potter.And.The.Deathly.Hallows.Part.2.2011.1080p.Bluray.x264-MaxHD
DURATiON : 02:10:26 [HH:MM:SS]
FORMAT : Matroska
CODEC : Matroska / High@L4.1 / V_MPEG4/ISO/AVC
RESOLUTiON : 1920x800
OVERALL : 12.8 Mbps
ViDEO : 10.5 Mbps
AUDiO : 384 Kbps AC3 6CH / DTS 1510 Kbps 6CH
LANGUAGE : Czech , Slovak , English
SUBTiTLES : Czech
SiZE : 11.6 GB


D O W N L O A D :

HELLSHARE
Kód: Vybrať všetko
Pre zobrazenie odkazov sa musíte alebo

MULTISHARE
Kód: Vybrať všetko
Pre zobrazenie odkazov sa musíte alebo

DiannaG
Top Prispievateľ
Top Prispievateľ
 
Príspevky: 278
Registrovaný: Str Aug 03, 2011 6:41 pm
Has thanked: 0 time
Been thanked: 31 times

Poslaťod DiannaG » Pia Nov 11, 2011 1:08 am

Harry.Potter.And.The.Deathly.Hallows.Part.2.720p.Bluray.x264-MHD.CZ.SK
Harry Potter a Relikvie smrti - část 2 / Harry Potter (2011)

Obrázok

Obrázok
Kód: Vybrať všetko
Pre zobrazenie odkazov sa musíte alebo


Obrázok
Kód: Vybrať všetko
Pre zobrazenie odkazov sa musíte alebo


Obrázok

Obrázok
Kód: Vybrať všetko
Pre zobrazenie odkazov sa musíte alebo

Obrázok
Kód: Vybrať všetko
Pre zobrazenie odkazov sa musíte alebo

Obrázok
Kód: Vybrať všetko
Pre zobrazenie odkazov sa musíte alebo

Obrázok
Kód: Vybrať všetko
Pre zobrazenie odkazov sa musíte alebo


***********************************************************************************************************

Harry.Potter.And.The.Deathly.Hallows.Part.2.2011.1080p.Bluray.x264-MaxHD.CZ.SK-LEADERs
Harry Potter a Relikvie smrti - část 2 / Harry Potter (2011)

Obrázok
Kód: Vybrať všetko
Pre zobrazenie odkazov sa musíte alebo


Obrázok

Obrázok
Kód: Vybrať všetko
Pre zobrazenie odkazov sa musíte alebo

Obrázok
Kód: Vybrať všetko
Pre zobrazenie odkazov sa musíte alebo

Obrázok
Kód: Vybrať všetko
Pre zobrazenie odkazov sa musíte alebo

Obrázok
Kód: Vybrať všetko
Pre zobrazenie odkazov sa musíte alebo

Obrázok užívateľa
matho109
Top Prispievateľ
Top Prispievateľ
 
Príspevky: 246
Registrovaný: Sob Feb 06, 2010 4:15 pm
Has thanked: 1 time
Been thanked: 36 times

Poslaťod matho109 » Pia Nov 11, 2011 2:37 pm

Harry Potter and the Deathly Hallows: Part 2 (2011)
Release: Harry.Potter.And.The.Deathly.Hallows.Part.2.2011.1080p.Bluray.x264-MaxHD.CZ.SK-LEADERs.mkv
..:: Obsahuje SK, CZ, ENG audio a CZ titulky ::..

Obrázok

Obrázok
Kód: Vybrať všetko
Pre zobrazenie odkazov sa musíte alebo


Dobrodružný / Drama / Rodinný / Fantasy
Velká Británie / USA, 2011, 130 min


Režie: David Yates
Hudba: Alexandre Desplat
Hrají: Daniel Radcliffe, Emma Watson, Rupert Grint, Helena Bonham Carter, Bonnie Wright, Maggie Smith, Evanna Lynch, Robbie Coltrane, Alan Rickman, Geraldine Somerville, Natalia Tena, Kelly Macdonald, Tom Felton, Emma Thompson, Ralph Fiennes, Michael Gambon, Gary Oldman, Jason Isaacs, Domhnall Gleeson, John Hurt, Ciarán Hinds, David Thewlis, Clémence Poésy, Helen McCrory, Jim Broadbent, Julie Walters, James Phelps, Matthew Lewis, Oliver Phelps, Jessie Cave, Miriam Margolyes, Mark Williams, Adrian Rawlins, Nick Moran, Sean Biggerstaff, Warwick Davis, Katie Leung, Gemma Jones, Scarlett Byrne, Anna Shaffer, Isabella Laughland, Chris Rankin, Devon Murray, Louis Cordice, Josh Herdman, Ryan Turner, Alfie Enoch, Afshan Azad, Guy Henry, David Bradley, Georgina Leonidas, Freddie Stroma, Robbie Jarvis, Emil Hostina, George Harris, William Melling, Arthur Bowen, Daphne de Beistegui, Helena Barlow, Dave Legeno

Přichází poslední dobrodružství ságy o Harry Potterovi. V tomto výpravném finále eskaluje bitva mezi dobrem a zlem do otevřené války čarodějného světa. Nikdy nebylo v sázce tolik jako teď. Nikdo už není v bezpečí. Je to ale Harry Potter, kdo možná bude muset podstoupit oběť největší, když se přiblíží rozhodující bitva s Lordem Voldemortem. Tady všechno končí .

Obrázok
Kód: Vybrať všetko
Pre zobrazenie odkazov sa musíte alebo


Obrázok
Obrázok

Obrázok
Obrázok
Kód: Vybrať všetko
Pre zobrazenie odkazov sa musíte alebo


Obrázok
Kód: Vybrať všetko
Pre zobrazenie odkazov sa musíte alebo


Obrázok
Cez Leto REUPLOADY Nerobím
...:::Ak sa ti páči môj upload stačí keď poďakuješ:::...

raketobijec
Power User
Power User
 
Príspevky: 626
Registrovaný: Uto Okt 11, 2011 11:07 pm
Has thanked: 1 time
Been thanked: 17 times

Poslaťod raketobijec » Pia Nov 11, 2011 5:18 pm

Harry Potter a Relikvie smrti - část 2 / Harry Potter and the Deathly Hallows: Part 2
Harry.Potter.and.the.Deathly.Hallows.Part.2.2011.1080p.BluRay.x264.DTS.EN.AC3.CZ.SK-FWG


Obrázok

Obrázok


Kód: Vybrať všetko
Pre zobrazenie odkazov sa musíte alebo


Audio:
Czech - 384 Kbps, 48.0 KHz, 16 bits, 6 channels, AC3
Slovak - 384 Kbps, 48.0 KHz, 16 bits, 6 channels, AC3
English - 1 510 Kbps, 48.0 KHz, 24 bits, 6 channels, DTS
Video:
9 750 Kbps, 1920*800 (2.40:1), at 23.976 fps, AVC (High@L4.1) (CABAC / 5 Ref Frames)
Titulky:
Cz / En
Source:
Video: Harry Potter and the Deathly Hallows . Part 2 2011 1080p BluRay DTS x264-FLAWL3SS
Cz/Sk Audio: DVD

Žánr:
Dobrodružný / Drama / Rodinný / Fantasy
Země / Rok / Délka
USA / 2011 / 2h10m

Format: Matroska
Format version: Version 2
File size: 11.0 GiB
Duration: 2h 10mn
Overall bit rate: 12.0 Mbps
Encoded date: UTC 2011-11-09 17:55:06
Writing application: mkvmerge v4.9.1 ('Ich will';) built on Jul 11 2011 23:53:15
Writing library: libebml v1.2.1 + libmatroska v1.1.1






Obrázok


Kód: Vybrať všetko
Pre zobrazenie odkazov sa musíte alebo




Obrázok



Kód: Vybrať všetko
Pre zobrazenie odkazov sa musíte alebo



BEZ HESLA

Anonymny
 

Poslaťod Anonymny » Pia Nov 11, 2011 7:32 pm

delete
Naposledy upravil Anonymny dňa Ned Dec 04, 2011 1:01 pm, celkovo upravené 1

asmorth
Gold User
Gold User
 
Príspevky: 1877
Registrovaný: Str Sep 17, 2008 3:00 pm
Has thanked: 1 time
Been thanked: 83 times

Re: Harry Potter a Relikvie smrti - část 2 / Harry Potter (2

Poslaťod asmorth » Pia Nov 11, 2011 7:52 pm

Harry.Potter.And.The.Deathly.Hallows.Part.2.2011.1080p.Bluray.x264-MaxHD.CZ.SK-LEADERs


Obrázok


Kód: Vybrať všetko
Pre zobrazenie odkazov sa musíte alebo



Obrázok
Kód: Vybrať všetko
Pre zobrazenie odkazov sa musíte alebo



Obrázok
Kód: Vybrať všetko
Pre zobrazenie odkazov sa musíte alebo



Obrázok
Kód: Vybrať všetko
Pre zobrazenie odkazov sa musíte alebo



Obrázok
Kód: Vybrať všetko
Pre zobrazenie odkazov sa musíte alebo



Linky sú kombinovateľné
Links from all mirrors are fully interchangeable

NightBest
Top Prispievateľ
Top Prispievateľ
 
Príspevky: 327
Registrovaný: Pia Mar 18, 2011 8:19 am
Has thanked: 0 time
Been thanked: 15 times

Poslaťod NightBest » Sob Nov 12, 2011 10:06 am

Harry Potter and the Deathly Hallows: Part 2 (2011) CZ a SK

Obrázok


Kód: Vybrať všetko
Pre zobrazenie odkazov sa musíte alebo


Kód: Vybrať všetko
Pre zobrazenie odkazov sa musíte alebo



Kód: Vybrať všetko
Pre zobrazenie odkazov sa musíte alebo

Obrázok užívateľa
gm4n
Power User
Power User
 
Príspevky: 746
Registrovaný: Sob Sep 13, 2008 2:50 pm
Has thanked: 0 time
Been thanked: 104 times

Poslaťod gm4n » Sob Nov 12, 2011 6:49 pm

Harry Potter and the Deathly Hallows: Part 2 / Harry Potter a Relikvie smrti - část 2 / 2011 / 720p - 1080p - REMUX / CZ - SK - EN

release Harry.Potter.And.The.Deathly.Hallows.Part.2.720p.Bluray.x264-MHD
release Harry.Potter.and.the.Deathly.Hallows.Part.2.2011.Blu-ray.1080p.DTS-HD.MA.5.1.x264.dxva-FraMeSToR
release Harry.Potter.and.the.Deathly.Hallows.Part.2.2011.Blu-ray.1080p.AVC.DTS-HD.MA.5.1.REMUX-FraMeSToR

Obrázok

Kód: Vybrať všetko
Pre zobrazenie odkazov sa musíte alebo






720p


SOURCE: BluRay
VIDEO: 720p, H.264, 23.976 fps
BITRATE: 7969 kbps
SIZE: 7.26 GiB
AUDIO: EN - DTS 1.5 Mbps, CZ - AC3 384 Kbps, SK - AC3 384 Kbps
SUBTITLES: EN, CZ


Format : Matroska
Format version : Version 2
File size : 6.56 GiB
Duration : 2h 10mn
Overall bit rate : 7 200 Kbps
Movie name : Harry.Potter.And.The.Deathly.Hallows.Part.2.720p.Bluray.x264-MHD

Video
ID : 1
Format : AVC
Format/Info : Advanced Video Codec
Format profile : High@L4.1
Format settings, CABAC : Yes
Format settings, ReFrames : 5 frames
Codec ID : V_MPEG4/ISO/AVC
Duration : 2h 10mn
Bit rate : 5 689 Kbps
Width : 1 280 pixels
Height : 528 pixels
Display aspect ratio : 2.40:1
Frame rate : 23.976 fps
Color space : YUV
Chroma subsampling : 4:2:0
Bit depth : 8 bits
Scan type : Progressive
Bits/(Pixel*Frame) : 0.351
Stream size : 5.05 GiB (77%)
Title : Harry.Potter.And.The.Deathly.Hallows.Part.2.720p.Bluray.x264-MHD
Writing library : x264 core 119 r2106 07efeb4
Encoding settings : cabac=1 / ref=5 / deblock=1:0:0 / analyse=0x3:0x133 / me=umh / subme=7 / psy=1 / psy_rd=1.00:0.00 / mixed_ref=1 / me_range=16 / chroma_me=1 / trellis=1 / 8x8dct=1 / cqm=0 / deadzone=21,11 / fast_pskip=0 / chroma_qp_offset=-2 / threads=12 / sliced_threads=0 / nr=0 / decimate=1 / interlaced=0 / bluray_compat=0 / constrained_intra=0 / bframes=3 / b_pyramid=2 / b_adapt=2 / b_bias=0 / direct=3 / weightb=1 / open_gop=0 / weightp=2 / keyint=250 / keyint_min=23 / scenecut=40 / intra_refresh=0 / rc_lookahead=50 / rc=2pass / mbtree=1 / bitrate=5689 / ratetol=1.0 / qcomp=0.60 / qpmin=0 / qpmax=69 / qpstep=4 / cplxblur=20.0 / qblur=0.5 / ip_ratio=1.40 / aq=1:1.00
Language : English

Audio #1
ID : 2
Format : AC-3
Format/Info : Audio Coding 3
Mode extension : CM (complete main)
Codec ID : A_AC3
Duration : 2h 10mn
Bit rate mode : Constant
Bit rate : 384 Kbps
Channel(s) : 6 channels
Channel positions : Front: L C R, Side: L R, LFE
Sampling rate : 48.0 KHz
Bit depth : 16 bits
Compression mode : Lossy
Stream size : 358 MiB (5%)
Title : DD 5.1 CZ@384Kbps
Language : Czech

Audio #2
ID : 3
Format : AC-3
Format/Info : Audio Coding 3
Mode extension : CM (complete main)
Codec ID : A_AC3
Duration : 2h 10mn
Bit rate mode : Constant
Bit rate : 384 Kbps
Channel(s) : 6 channels
Channel positions : Front: L C R, Side: L R, LFE
Sampling rate : 48.0 KHz
Bit depth : 16 bits
Compression mode : Lossy
Stream size : 358 MiB (5%)
Title : DD 5.1 SK@384Kbps
Language : Slovak

Audio #3
ID : 4
Format : DTS
Format/Info : Digital Theater Systems
Codec ID : A_DTS
Duration : 2h 10mn
Bit rate mode : Constant
Bit rate : 1 510 Kbps
Channel(s) : 6 channels
Channel positions : Front: L C R, Side: L R, LFE
Sampling rate : 48.0 KHz
Bit depth : 24 bits
Compression mode : Lossy
Stream size : 1.38 GiB (19%)
Title : DTS EN@1,5Mb/s
Language : English

Subtitles : Czech, English



Obrázok## 986mb splited archives ##
Kód: Vybrať všetko
Pre zobrazenie odkazov sa musíte alebo

Obrázok## 986mb splited archives ##
Kód: Vybrať všetko
Pre zobrazenie odkazov sa musíte alebo

Obrázok## 986mb splited archives ##
Kód: Vybrať všetko
Pre zobrazenie odkazov sa musíte alebo

Obrázok## 986mb splited archives ##
Kód: Vybrať všetko
Pre zobrazenie odkazov sa musíte alebo

Obrázok## 986mb splited archives ##
Kód: Vybrať všetko
Pre zobrazenie odkazov sa musíte alebo

Obrázok## 986mb splited archives ##
Kód: Vybrať všetko
Pre zobrazenie odkazov sa musíte alebo






1080p

SOURCE: BluRay
VIDEO: 1080p, H.264, 23.976 fps
BITRATE: 11,9 mbps
SIZE: 10.8 GiB
AUDIO: EN - DTS 2.4 Mbps, CZ - AC3 384 Kbps, SK - AC3 384 Kbps
SUBTITLES: EN, CZ



Formát : Matroska
Format_Version : Version 2
Velikost souboru : 10,8 GiB
Duration/String : 2h 10mn
Celkový BitRate : 11,9 Mbps

Video
ID : 1
Formát : AVC
Formát/ : Advanced Video Codec
Format_Profile : High@L4.1
Format_Settings_CABAC/String : Ano
Format_Settings_RefFrames/String : 5 frame
CodecID : V_MPEG4/ISO/AVC
Duration/String : 2h 10mn
Bit rate : 8 445 Kbps
BitRate_Nominal/String : 7 233 Kbps
Šířka : 1 920pixely
Výška : 800pixely
Poměr stran : 2,40:1
Frame rate : 23,976 fps
ColorSpace : YUV
ChromaSubsampling : 4:2:0
BitDepth/String : 8 bits
ScanType/String : Progressive
Bits/(Pixel*Frame) : 0.229
StreamSize/String : 7,69 GiB (71%)
Enkódoval : x264 core 119 r2106 07efeb4
Nastavení enkoderu : cabac=1 / ref=5 / deblock=1:-1:-1 / analyse=0x3:0x113 / me=umh / subme=10 / psy=1 / psy_rd=1.00:0.00 / mixed_ref=1 / me_range=32 / chroma_me=1 / trellis=2 / 8x8dct=1 / cqm=0 / deadzone=21,11 / fast_pskip=1 / chroma_qp_offset=-2 / threads=12 / sliced_threads=0 / nr=0 / decimate=1 / interlaced=0 / bluray_compat=0 / constrained_intra=0 / bframes=8 / b_pyramid=2 / b_adapt=2 / b_bias=0 / direct=3 / weightb=1 / open_gop=0 / weightp=2 / keyint=250 / keyint_min=23 / scenecut=40 / intra_refresh=0 / rc_lookahead=40 / rc=2pass / mbtree=1 / bitrate=7233 / ratetol=1.0 / qcomp=0.60 / qpmin=10 / qpmax=51 / qpstep=4 / cplxblur=20.0 / qblur=0.5 / vbv_maxrate=50000 / vbv_bufsize=50000 / nal_hrd=none / ip_ratio=1.40 / aq=1:1.00

Audio #1
ID : 2
Formát : AC-3
Formát/ : Audio Coding 3
Format_Settings_ModeExtension : CM (complete main)
CodecID : A_AC3
Duration/String : 2h 10mn
Bit rate : 384 Kbps
Kanál(y) : 6 kanály
Channel positions : Front: L C R, Side: L R, LFE
Sampling rate : 48,0 KHz
BitDepth/String : 16 bits
Video delay : 22ms
StreamSize/String : 358 MiB (3%)
Jazyk : Czech

Audio #2
ID : 3
Formát : AC-3
Formát/ : Audio Coding 3
Format_Settings_ModeExtension : CM (complete main)
CodecID : A_AC3
Duration/String : 2h 10mn
Bit rate : 384 Kbps
Kanál(y) : 6 kanály
Channel positions : Front: L C R, Side: L R, LFE
Sampling rate : 48,0 KHz
BitDepth/String : 16 bits
Video delay : 22ms
StreamSize/String : 358 MiB (3%)
Jazyk : Slovak

Audio #3
ID : 4
Formát : DTS
Formát/ : Digital Theater Systems
Format_Profile : MA / Core
CodecID : A_DTS
Duration/String : 2h 10mn
Bit rate : 2 404 Kbps / 1 510 Kbps
Kanál(y) : 6 kanály
Channel positions : Front: L C R, Side: L R, LFE
Sampling rate : 48,0 KHz
BitDepth/String : 24 bits
Compression_Mode/String : / Lossy
Titul : FraMeSToR DTS-HD MA 5.1
Jazyk : English

Text #1
ID : 5
Formát : UTF-8
CodecID : S_TEXT/UTF8
/ : UTF-8 Plain Text
Titul : forced CZ
Jazyk : Czech


Text #2
ID : 7
Formát : PGS
MuxingMode : zlib
CodecID : S_HDMV/PGS
/ : The same subtitle format used on BDs/HD-DVDs
Titul : ENG SDH
Jazyk : English



Obrázok## 986mb splited archives ##
Kód: Vybrať všetko
Pre zobrazenie odkazov sa musíte alebo

Obrázok## 986mb splited archives ##
Kód: Vybrať všetko
Pre zobrazenie odkazov sa musíte alebo

Obrázok## 986mb splited archives ##
Kód: Vybrať všetko
Pre zobrazenie odkazov sa musíte alebo

Obrázok## 986mb splited archives ##
Kód: Vybrať všetko
Pre zobrazenie odkazov sa musíte alebo

Obrázok## 986mb splited archives ##
Kód: Vybrať všetko
Pre zobrazenie odkazov sa musíte alebo






1080p - REMUX

SOURCE: BluRay
VIDEO: 1080p, H.264, 23.976 fps
BITRATE: 22.0 Mbps
SIZE: 20.0 GiB
AUDIO: EN - DTS 2.4 Mbps, CZ - AC3 384 Kbps, SK - AC3 384 Kbps
SUBTITLES: EN, CZ



General
Unique ID : 203477658873153227117971058847599341314 (0x99145F22BC1EE4B2B9698C934CBCAF02)
Complete name : D:\hp\Harry.Potter.and.the.Deathly.Hallows.Part.2.2011.Blu-ray.1080p.AVC.DTS-HD.MA.5.1.REMUX-FraMeSToR.mkv
Format : Matroska
Format version : Version 2
File size : 20.0 GiB
Duration : 2h 10mn
Overall bit rate mode : Variable
Overall bit rate : 22.0 Mbps
Encoded date : UTC 2011-11-10 17:27:18
Writing application : mkvmerge v5.0.1 ('Es ist Sommer') built on Oct 9 2011 11:55:43
Writing library : libebml v1.2.2 + libmatroska v1.3.0

Video
ID : 1
Format : AVC
Format/Info : Advanced Video Codec
Format profile : High@L4.1
Format settings, CABAC : Yes
Format settings, ReFrames : 2 frames
Codec ID : V_MPEG4/ISO/AVC
Duration : 2h 10mn
Bit rate mode : Variable
Bit rate : 18.4 Mbps
Width : 1 920 pixels
Height : 1 080 pixels
Display aspect ratio : 16:9
Frame rate : 23.976 fps
Color space : YUV
Chroma subsampling : 4:2:0
Bit depth : 8 bits
Scan type : Progressive
Bits/(Pixel*Frame) : 0.369
Stream size : 16.7 GiB (84%)
Title : FraMeSToR MPEG-4 AVC Video

Audio #1
ID : 2
Format : AC-3
Format/Info : Audio Coding 3
Mode extension : CM (complete main)
Codec ID : A_AC3
Duration : 2h 10mn
Bit rate mode : Constant
Bit rate : 384 Kbps
Channel(s) : 6 channels
Channel positions : Front: L C R, Side: L R, LFE
Sampling rate : 48.0 KHz
Bit depth : 16 bits
Compression mode : Lossy
Stream size : 358 MiB (2%)
Language : Czech

Audio #2
ID : 3
Format : AC-3
Format/Info : Audio Coding 3
Mode extension : CM (complete main)
Codec ID : A_AC3
Duration : 2h 10mn
Bit rate mode : Constant
Bit rate : 384 Kbps
Channel(s) : 6 channels
Channel positions : Front: L C R, Side: L R, LFE
Sampling rate : 48.0 KHz
Bit depth : 16 bits
Compression mode : Lossy
Stream size : 358 MiB (2%)
Language : Slovak

Audio #3
ID : 4
Format : DTS
Format/Info : Digital Theater Systems
Format profile : MA / Core
Codec ID : A_DTS
Duration : 2h 10mn
Bit rate mode : Variable
Bit rate : 2 404 Kbps / 1 510 Kbps
Channel(s) : 6 channels
Channel positions : Front: L C R, Side: L R, LFE
Sampling rate : 48.0 KHz
Bit depth : 24 bits
Compression mode : Lossless / Lossy
Title : FraMeSToR DTS-HD MA 5.1
Language : English

Text #1
ID : 5
Format : UTF-8
Codec ID : S_TEXT/UTF8
Codec ID/Info : UTF-8 Plain Text
Language : Czech

Text #2
ID : 6
Format : PGS
Muxing mode : zlib
Codec ID : S_HDMV/PGS
Codec ID/Info : The same subtitle format used on BDs/HD-DVDs
Title : ENG SDH
Language : English



Obrázok## 986mb splited archives ##
Kód: Vybrať všetko
Pre zobrazenie odkazov sa musíte alebo

Obrázok## 986mb splited archives ##
Kód: Vybrať všetko
Pre zobrazenie odkazov sa musíte alebo

Obrázok## 986mb splited archives ##
Kód: Vybrať všetko
Pre zobrazenie odkazov sa musíte alebo

Obrázok## 986mb splited archives ##
Kód: Vybrať všetko
Pre zobrazenie odkazov sa musíte alebo

Obrázok## 986mb splited archives ##
Kód: Vybrať všetko
Pre zobrazenie odkazov sa musíte alebo


Linky sú kombinovateľné.


--NO PASS--
Obrázok

wakawaka799
Gold User
Gold User
 
Príspevky: 1935
Registrovaný: Pia Jún 17, 2011 10:26 pm
Has thanked: 1 time
Been thanked: 76 times

Poslaťod wakawaka799 » Ned Nov 13, 2011 6:53 pm

Harry Potter a Relikvie smrti - část 2 / CZ, SK, EN
Harry.Potter.And.The.Deathly.Hallows.Part.2.2011.1080p.Bluray.x264-MaxHD.CZ.SK-LEADERs

Obrázok

Kód: Vybrať všetko
Pre zobrazenie odkazov sa musíte alebo


Přichází poslední dobrodružství ságy o Harry Potterovi. V tomto výpravném finále eskaluje bitva mezi dobrem a zlem do otevřené války čarodějného světa. Nikdy nebylo v sázce tolik jako teď. Nikdo už není v bezpečí. Je to ale Harry Potter, kdo možná bude muset podstoupit oběť největší, když se přiblíží rozhodující bitva s Lordem Voldemortem. Tady všechno končí ...

GENRE : Dobrodružný / Drama / Rodinný / Fantasy
SOURCE : Harry.Potter.And.The.Deathly.Hallows.Part.2.2011.1080p.Bluray.x264-MaxHD
DURATiON : 02:10:26 [HH:MM:SS]
FORMAT : Matroska
CODEC : Matroska / High@L4.1 / V_MPEG4/ISO/AVC
RESOLUTiON : 1920x800
OVERALL : 12.8 Mbps
ViDEO : 10.5 Mbps
AUDiO : 384 Kbps AC3 6CH / DTS 1510 Kbps 6CH
LANGUAGE : Czech , Slovak , English
SUBTiTLES : Czech
SiZE : 11.6 GB



Fileserve:
Kód: Vybrať všetko
Pre zobrazenie odkazov sa musíte alebo


Filesonic:
Kód: Vybrať všetko
Pre zobrazenie odkazov sa musíte alebo


Uploadstation:
Kód: Vybrať všetko
Pre zobrazenie odkazov sa musíte alebo



Kód: Vybrať všetko
Pre zobrazenie odkazov sa musíte alebo
Naposledy upravil wakawaka799 dňa Štv Nov 24, 2011 12:04 am, celkovo upravené 2

Obrázok užívateľa
fero182
Power User
Power User
 
Príspevky: 474
Registrovaný: Sob Jan 17, 2009 6:50 pm
Has thanked: 2 times
Been thanked: 22 times

Harry Potter a Relikvie smrti - 2 / SK

Poslaťod fero182 » Pon Nov 14, 2011 9:02 am

Harry Potter a Relikvie smrti - 2 / SK

Sťahuj :

Kód: Vybrať všetko
Pre zobrazenie odkazov sa musíte alebo


Info :

Funkčne, pozrete.
Matematika je veda o najzložitejších abstrakciách, k akým môže ľudský um dospieť.

Ďalší

Späť na HD Movie - SK/CZ Filmy

Kto je on-line

Užívatelia prezerajúci fórum: raff a 1 hosť