//

IT-technika.SK

Ovečka Shaun / Shaun the Sheep (2007) 1-7 časť

Nefunkčné linky, staré nevhodné a zabudnuté témy (presunuté za obdobie 2011-2014)
Obrázok užívateľa
ENTEROO
Prispievateľ
Prispievateľ
 
Príspevky: 195
Registrovaný: Uto Jan 06, 2009 10:23 pm
Has thanked: 25 times
Been thanked: 62 times

Ovečka Shaun / Shaun the Sheep (2007) 1-7 časť

Poslaťod ENTEROO » Uto Jún 15, 2010 1:31 am

Ovečka Shaun / Shaun the Sheep (2007) 1-7 časť

Obrázok




<- INFO ->


Animovaný / Komédia / Rodinný
Velká Británie, 2007, 60x7 min

Režie: Christopher Sadler
Hrají: Kate Harbour, Jo Allen


Se Shaunem vládne na farmě chaos! Shaun rozhodně nejde se stádem - právě naopak, stádo se pod jeho
vedením pouští do různých činností, které klidné údolí mění na pastvinu plnou zmatků. Shaun s kamarády
nedávají šanci pasteveckému psu Bitzerovi, který se snaží utajit, co všechno se děje za farmárovými zády.
Každý den přináší nové dobrodružství se Shaunem! 8 Béé...zvadných příběhů: Rozcvička se Shaunem
Koupání Aportování Donáška Obraz Česáči jablek Strašidelná noc Drak



CSFD: 93%

Odkaz na stiahnutie:
Pre zobrazenie odkazov sa musíte alebo



Ovecka shaun 1 - Shape up with shaun

Format : AVI
Format/Info : Audio Video Interleave
File size : 700 MiB
Duration : 56mn 35s
Overall bit rate : 1 728 Kbps
Writing application : VirtualDubMod 1.5.10.2 (build 2540/release)
Writing library : VirtualDubMod build 2540/release

Video
ID : 0
Format : MPEG-4 Visual
Format profile : Simple@L3
Format settings, BVOP : Yes
Format settings, QPel : No
Format settings, GMC : No warppoints
Format settings, Matrix : Custom
Codec ID : XVID
Codec ID/Hint : XviD
Duration : 56mn 35s
Bit rate : 1 600 Kbps
Width : 720 pixels
Height : 416 pixels
Display aspect ratio : 16:9
Frame rate : 25.000 fps
Resolution : 8 bits
Colorimetry : 4:2:0
Scan type : Progressive
Bits/(Pixel*Frame) : 0.214
Stream size : 648 MiB (93%)
Writing library : XviD 1.0.1 (UTC 2004-06-05)

Audio
ID : 1
Format : MPEG Audio
Format version : Version 1
Format profile : Layer 3
Format_Settings_Mode : Joint stereo
Format_Settings_ModeExtension : MS Stereo
Codec ID : 55
Codec ID/Hint : MP3
Duration : 56mn 34s
Bit rate mode : Variable
Bit rate : 118 Kbps
Nominal bit rate : 128 Kbps
Channel(s) : 2 channels
Sampling rate : 48.0 KHz
Stream size : 47.0 MiB (7%)
Alignment : Aligned on interleaves
Interleave, duration : 24 ms (0.60 video frame)
Interleave, preload duration : 158 ms
Writing library : LAME3.97
Encoding settings : -m j -V 4 -q 2 -lowpass 17 --abr 128

<- HELLSHARE ->

Odkaz na stiahnutie:
Pre zobrazenie odkazov sa musíte alebo




Ovecka shaun 2 - Off the baa

Format : AVI
Format/Info : Audio Video Interleave
File size : 700 MiB
Duration : 56mn 32s
Overall bit rate : 1 731 Kbps
Writing application : VirtualDubMod 1.5.10.2 (build 2540/release)
Writing library : VirtualDubMod build 2540/release

Video
ID : 0
Format : MPEG-4 Visual
Format profile : Simple@L3
Format settings, BVOP : Yes
Format settings, QPel : No
Format settings, GMC : No warppoints
Format settings, Matrix : Custom
Codec ID : XVID
Codec ID/Hint : XviD
Duration : 56mn 32s
Bit rate : 1 602 Kbps
Width : 720 pixels
Height : 416 pixels
Display aspect ratio : 16:9
Frame rate : 25.000 fps
Resolution : 8 bits
Colorimetry : 4:2:0
Scan type : Progressive
Bits/(Pixel*Frame) : 0.214
Stream size : 648 MiB (93%)
Writing library : XviD 1.0.1 (UTC 2004-06-05)

Audio
ID : 1
Format : MPEG Audio
Format version : Version 1
Format profile : Layer 3
Format_Settings_Mode : Joint stereo
Format_Settings_ModeExtension : MS Stereo
Codec ID : 55
Codec ID/Hint : MP3
Duration : 56mn 32s
Bit rate mode : Variable
Bit rate : 115 Kbps
Nominal bit rate : 128 Kbps
Channel(s) : 2 channels
Sampling rate : 48.0 KHz
Stream size : 46.7 MiB (7%)
Alignment : Aligned on interleaves
Interleave, duration : 24 ms (0.60 video frame)
Interleave, preload duration : 159 ms
Writing library : LAME3.97
Encoding settings : -m j -V 4 -q 2 -lowpass 17 --abr 128

<- HELLSHARE ->

Odkaz na stiahnutie:
Pre zobrazenie odkazov sa musíte alebo




Ovecka shaun 3 - Saturday night shaun

Format : AVI
Format/Info : Audio Video Interleave
File size : 700 MiB
Duration : 56mn 34s
Overall bit rate : 1 729 Kbps
Writing application : VirtualDubMod 1.5.10.2 (build 2540/release)
Writing library : VirtualDubMod build 2540/release

Video
ID : 0
Format : MPEG-4 Visual
Format profile : Simple@L3
Format settings, BVOP : Yes
Format settings, QPel : No
Format settings, GMC : No warppoints
Format settings, Matrix : Custom
Codec ID : XVID
Codec ID/Hint : XviD
Duration : 56mn 34s
Bit rate : 1 601 Kbps
Width : 720 pixels
Height : 416 pixels
Display aspect ratio : 16:9
Frame rate : 25.000 fps
Resolution : 8 bits
Colorimetry : 4:2:0
Scan type : Progressive
Bits/(Pixel*Frame) : 0.214
Stream size : 648 MiB (93%)
Writing library : XviD 1.0.1 (UTC 2004-06-05)

Audio
ID : 1
Format : MPEG Audio
Format version : Version 1
Format profile : Layer 3
Format_Settings_Mode : Joint stereo
Format_Settings_ModeExtension : MS Stereo
Codec ID : 55
Codec ID/Hint : MP3
Duration : 56mn 33s
Bit rate mode : Variable
Bit rate : 116 Kbps
Nominal bit rate : 128 Kbps
Channel(s) : 2 channels
Sampling rate : 48.0 KHz
Stream size : 46.5 MiB (7%)
Alignment : Aligned on interleaves
Interleave, duration : 24 ms (0.60 video frame)
Interleave, preload duration : 160 ms
Writing library : LAME3.97
Encoding settings : -m j -V 4 -q 2 -lowpass 17 --abr 128

<- HELLSHARE ->

Odkaz na stiahnutie:
Pre zobrazenie odkazov sa musíte alebo




Ovecka shaun 4 - Abracadabra

Format : AVI
Format/Info : Audio Video Interleave
File size : 700 MiB
Duration : 53mn 54s
Overall bit rate : 1 815 Kbps

Video
ID : 0
Format : MPEG-4 Visual
Format profile : Simple@L3
Format settings, BVOP : No
Format settings, QPel : No
Format settings, GMC : No warppoints
Format settings, Matrix : Default (H.263)
Codec ID : XVID
Codec ID/Hint : XviD
Duration : 53mn 54s
Bit rate : 1 584 Kbps
Width : 640 pixels
Height : 352 pixels
Display aspect ratio : 16:9
Frame rate : 25.000 fps
Resolution : 8 bits
Colorimetry : 4:2:0
Scan type : Progressive
Bits/(Pixel*Frame) : 0.281
Stream size : 611 MiB (87%)
Writing library : XviD 1.2.0.dev47 (UTC 2006-11-01)

Audio
ID : 1
Format : AC-3
Format/Info : Audio Coding 3
Codec ID : 2000
Duration : 53mn 54s
Bit rate mode : Constant
Bit rate : 224 Kbps
Channel(s) : 2 channels
Channel positions : L R
Sampling rate : 48.0 KHz
Stream size : 86.4 MiB (12%)
Alignment : Split accross interleaves
Interleave, duration : 80 ms (2.00 video frames)
Interleave, preload duration : 500 ms

<- HELLSHARE ->

Odkaz na stiahnutie:
Pre zobrazenie odkazov sa musíte alebo




Ovecka shaun 5 - Wash day

Format : AVI
Format/Info : Audio Video Interleave
File size : 700 MiB
Duration : 54mn 34s
Overall bit rate : 1 793 Kbps
Writing application : VirtualDubMod 1.5.4.1 (build 2178/release)
Writing library : VirtualDubMod build 2178/release

Video
ID : 0
Format : MPEG-4 Visual
Format profile : Simple@L3
Format settings, BVOP : Yes
Format settings, QPel : No
Format settings, GMC : No warppoints
Format settings, Matrix : Custom
Codec ID : XVID
Codec ID/Hint : XviD
Duration : 54mn 34s
Bit rate : 1 661 Kbps
Width : 720 pixels
Height : 416 pixels
Display aspect ratio : 16:9
Frame rate : 25.000 fps
Resolution : 8 bits
Colorimetry : 4:2:0
Scan type : Progressive
Bits/(Pixel*Frame) : 0.222
Stream size : 649 MiB (93%)
Writing library : XviD 1.0.1 (UTC 2004-06-05)

Audio
ID : 1
Format : MPEG Audio
Format version : Version 1
Format profile : Layer 3
Format_Settings_Mode : Joint stereo
Format_Settings_ModeExtension : MS Stereo
Codec ID : 55
Codec ID/Hint : MP3
Duration : 54mn 34s
Bit rate mode : Variable
Bit rate : 119 Kbps
Nominal bit rate : 128 Kbps
Channel(s) : 2 channels
Sampling rate : 48.0 KHz
Stream size : 46.3 MiB (7%)
Alignment : Aligned on interleaves
Interleave, duration : 24 ms (0.60 video frame)
Interleave, preload duration : 155 ms
Writing library : LAME3.97
Encoding settings : -m j -V 4 -q 2 -lowpass 17 --abr 128
Language : German

<- HELLSHARE ->

Odkaz na stiahnutie:
Pre zobrazenie odkazov sa musíte alebo




Ovecka shaun 6 - A woolly good time (2010)

FFormat : AVI
Format/Info : Audio Video Interleave
File size : 450 MiB
Duration : 44mn 55s
Overall bit rate : 1 399 Kbps
Writing application : VirtualDubMod 1.5.10.2 (build 2542/release)
Writing library : VirtualDubMod build 2542/release

Video
ID : 0
Format : MPEG-4 Visual
Format profile : Advanced Simple@L5
Format settings, BVOP : Yes
Format settings, QPel : No
Format settings, GMC : No warppoints
Format settings, Matrix : Default (H.263)
Muxing mode : Packed bitstream
Codec ID : XVID
Codec ID/Hint : XviD
Duration : 44mn 55s
Bit rate : 1 132 Kbps
Width : 704 pixels
Height : 480 pixels
Display aspect ratio : 1.467
Frame rate : 29.970 fps
Resolution : 8 bits
Colorimetry : 4:2:0
Scan type : Progressive
Bits/(Pixel*Frame) : 0.112
Stream size : 364 MiB (81%)
Writing library : XviD 1.2.1 (UTC 2008-12-04)

Audio
ID : 1
Format : AC-3
Format/Info : Audio Coding 3
Codec ID : 2000
Duration : 44mn 54s
Bit rate mode : Constant
Bit rate : 256 Kbps
Channel(s) : 2 channels
Channel positions : L R
Sampling rate : 48.0 KHz
Stream size : 82.2 MiB (18%)
Alignment : Split accross interleaves
Interleave, duration : 33 ms (1.00 video frame)
Interleave, preload duration : 500 ms

<- HELLSHARE ->

Odkaz na stiahnutie:
Pre zobrazenie odkazov sa musíte alebo




Ovecka shaun 7 - One giant leap for lambkind (2010)

Format : AVI
Format/Info : Audio Video Interleave
File size : 730 MiB
Duration : 41mn 40s
Overall bit rate : 2 449 Kbps
Writing application : VirtualDubMod 1.5.10.2 (build 2542/release)
Writing library : VirtualDubMod build 2542/release

Video
ID : 0
Format : MPEG-4 Visual
Format profile : Advanced Simple@L5
Format settings, BVOP : Yes
Format settings, QPel : No
Format settings, GMC : No warppoints
Format settings, Matrix : Custom
Muxing mode : Packed bitstream
Codec ID : XVID
Codec ID/Hint : XviD
Duration : 41mn 40s
Bit rate : 2 181 Kbps
Width : 720 pixels
Height : 400 pixels
Display aspect ratio : 16:9
Frame rate : 29.970 fps
Resolution : 8 bits
Colorimetry : 4:2:0
Scan type : Progressive
Bits/(Pixel*Frame) : 0.253
Stream size : 650 MiB (89%)
Writing library : XviD 1.2.1 (UTC 2008-12-04)

Audio
ID : 1
Format : AC-3
Format/Info : Audio Coding 3
Codec ID : 2000
Duration : 41mn 39s
Bit rate mode : Constant
Bit rate : 256 Kbps
Channel(s) : 2 channels
Channel positions : L R
Sampling rate : 48.0 KHz
Stream size : 76.3 MiB (10%)
Alignment : Split accross interleaves
Interleave, duration : 33 ms (1.00 video frame)
Interleave, preload duration : 500 ms

<- HELLSHARE ->

Odkaz na stiahnutie:
Pre zobrazenie odkazov sa musíte alebo


-------------------- Ďakujem poteší :-) ------------------
ĎAKUJEM VŠETKÝM ZA +REPUTÁCIU/ĎAKUJEM :-)

Obrázok

adosk
Moj prvý príspevok !
Moj prvý príspevok !
 
Príspevky: 1
Registrovaný: Sob Júl 19, 2008 6:09 pm
Has thanked: 0 time
Been thanked: 0 time

Re: Ovečka Shaun / Shaun the Sheep (2007) 1-7 časť

Poslaťod adosk » Sob Jún 26, 2010 7:57 pm

Neviem ako je to mozne ale v casti 6. su tie iste diely ako v 5. casti (OS-Wash day) a v 7.casti su tie diely ako v 4.casti (OS-Abracadabra)

zenden11
Nový člen
Nový člen
 
Príspevky: 7
Registrovaný: Sob Dec 20, 2008 6:03 pm
Has thanked: 1 time
Been thanked: 0 time

Poslaťod zenden11 » Uto Jún 29, 2010 12:54 pm

Ty kokso to co uz za triky pre download sa pouzivaju


Späť na Archív príspevkov [2011-2014]

Kto je on-line

Užívatelia prezerajúci fórum: Žiadny registrovaný užívateľ nie je prítomný a 0 hostia