//

IT-technika.SK

Terminátor / Terminator (1984)

Filmy v HD formáte, dabované zahraničné filmy, slovenská a česká produkcia
bornos
Excellent User
Excellent User
 
Príspevky: 1103
Registrovaný: Str Máj 13, 2009 12:11 am
Has thanked: 1 time
Been thanked: 109 times

Terminátor / Terminator (1984)

Poslaťod bornos » Štv Júl 22, 2010 1:30 am

Terminátor

(The.Terminator.1984.1080p.BluRay.x264-hV.CZ)

Obrázok

Obrázok
Odkaz na stiahnutie:
Pre zobrazenie odkazov sa musíte alebo


Obrázok
Odkaz na stiahnutie:
Pre zobrazenie odkazov sa musíte alebo



Film (2GB parts)

Obrázok
Odkaz na stiahnutie:
Pre zobrazenie odkazov sa musíte alebo


Obrázok
Odkaz na stiahnutie:
Pre zobrazenie odkazov sa musíte alebo


Obrázok
Odkaz na stiahnutie:
Pre zobrazenie odkazov sa musíte alebo


Linky se dají kombinovat

Přidán záznam pro opravu dat
Naposledy upravil bornos dňa Štv Jún 02, 2011 12:24 am, celkovo upravené 3
Pro stahování doporučuji použít Jdownloader

Stažení:
Odkaz na stiahnutie:
Pre zobrazenie odkazov sa musíte alebo

Obrázok užívateľa
TnTckoo
Prispievateľ
Prispievateľ
 
Príspevky: 142
Registrovaný: Štv Dec 02, 2010 6:34 pm
Bydlisko: Slovakia - BB
Has thanked: 0 time
Been thanked: 5 times

Poslaťod TnTckoo » Uto Feb 22, 2011 9:41 am

01 Terminator cz
Odkaz na stiahnutie:
Pre zobrazenie odkazov sa musíte alebo


Sample:
Odkaz na stiahnutie:
Pre zobrazenie odkazov sa musíte alebo

Download:
Odkaz na stiahnutie:
Pre zobrazenie odkazov sa musíte alebo


PASS:
Odkaz na stiahnutie:
Pre zobrazenie odkazov sa musíte alebo

Tom_85
Power User
Power User
 
Príspevky: 655
Registrovaný: Štv Feb 05, 2009 11:46 am
Has thanked: 0 time
Been thanked: 82 times

Poslaťod Tom_85 » Str Mar 09, 2011 11:03 am

Terminátor / Terminator, The (1984) 1080

Obrázok
Obrázok
Ak sa najde nefunkcny link tak mi dajte vediet reupnem znova..
Obrázok

Odkaz na stiahnutie:
Pre zobrazenie odkazov sa musíte alebo


    Obsah:
    Sci-Fi / Akční / Thriller

    USA, 1984, 108 min
    Režie: James Cameron
    Hrají: Arnold Schwarzenegger, Michael Biehn, Linda Hamilton, Paul Winfield, Lance Henriksen, Rick

    Rossovich, Earl Boen, Dick Miller, Franco Columbu, Bill Paxton, Marianne Muellerleile, Brian

    Thompson, Harriet Medin

    Z roku 2029 je do Los Angeles roku 1984 vyslán zabijácký stroj podobný člověku. Má za úkol zabít

    Sarah Connorovou dřív, než přivede na svět syna, který se má později stát vůdcem lidí ve válce

    proti strojům. Lidé žijící v budoucnosti ovšem do současnosti také vyslali svého muže, který se

    bude snažit Sarah zachránit.

    Jazyk: A - CZ
    Titulky: cz
    Kvalita zvuku: AC3

    Video
    Formát : AVC
    Formát/Info : Advanced Video Codec
    Format profile : High@L5.1
    Format settings, CABAC : Ano
    Format settings, ReFrames : 8 frames
    Codec ID : V_MPEG4/ISO/AVC
    Duration : 1h 47mn
    Bit rate : 9525 Kbps
    Nominal bit rate : 9967 Kbps
    Šířka : 1920pixely
    Výška : 1040pixely
    Poměr stran : 16/9
    Frame rate : 23.976 fps
    Colorimetry : 4:2:0
    Scan type : Progressive
    Bits/(Pixel*Frame) : 0.208
    Enkódoval : x264 core 56 svn-667C
    Nastavení enkoderu : cabac=1 / ref=5 / deblock=1:-1:-1 / analyse=0x3:0x133 / me=umh

    / subme=6 / brdo=1 / mixed_ref=1 / me_range=16 / chroma_me=1 / trellis=1 / 8x8dct=1 / cqm=2 /

    deadzone=4,6 / chroma_qp_offset=0 / threads=3 / nr=0 / decimate=1 / mbaff=0 / bframes=3 /

    b_pyramid=1 / b_adapt=1 / b_bias=0 / direct=3 / wpredb=1 / bime=1 / keyint=250 / keyint_min=25 /

    scenecut=40(pre) / rc=2pass / bitrate=9967 / ratetol=1.0 / rceq='blurCplx^(1-qComp)' / qcomp=0.60

    / qpmin=10 / qpmax=51 / qpstep=4 / cplxblur=20.0 / qblur=0.5 / ip_ratio=1.40 / pb_ratio=1.30 /

    zones=148787,154246,b=0.15 / aq=1:0.3:15.0
    Jazyk : English

    Audio #1
    Formát : AC-3
    Formát/Info : Audio Coding 3
    Codec ID : A_AC3
    Duration : 1h 47mn
    Bit rate mode : Constant
    Bit rate : 640 Kbps
    Kanál(y) : 6 kanály
    Channel positions : Front: L C R, Rear: L R, LFE
    Sampling rate : 48.0 KHz
    Jazyk : English

    Audio #2
    Formát : AC-3
    Formát/Info : Audio Coding 3
    Codec ID : A_AC3
    Duration : 1h 47mn
    Bit rate mode : Constant
    Bit rate : 320 Kbps
    Kanál(y) : 6 kanály
    Channel positions : Front: L C R, Rear: L R, LFE
    Sampling rate : 48.0 KHz
    Jazyk : Czech

    Text
    Formát : UTF-8
    Codec ID : S_TEXT/UTF8
    Codec ID/Info : UTF-8 Plain Text
    Jazyk : Czech

Obrázok

Odkaz na stiahnutie:
Pre zobrazenie odkazov sa musíte alebo


Obrázok
Odkaz na stiahnutie:
Pre zobrazenie odkazov sa musíte alebo


Linky zo servera Hellshare.com a Share-rapid.com su kombinovatelne

Obrázok
Odkaz na stiahnutie:
Pre zobrazenie odkazov sa musíte alebo


Obrázok
Odkaz na stiahnutie:
Pre zobrazenie odkazov sa musíte alebo


Linky zo servera Netload.in, CZshare.com su kombinovatelne

Obrázok

    Ak mate zaujem o moj zoznam uploudu piste PM...
    Ak najdete v komente takyto obrazok znamena to ze je to zalohovane..
    A na poziadane DO 24 HODIN OD PRECITANIA PM upnem dany link znova..


    Obrázok
    Ak nie su na vasom servery dane linky napiste pm a poslem vam ich... Ale len z tych co mam

    spomenute.
    Jedna sa o servery
    =->Hellshare.com
    ==->Share-rapid.com
    ===->Netload.in
    ====->Upnito.sk
    =====->CZshare.com

bornos
Excellent User
Excellent User
 
Príspevky: 1103
Registrovaný: Str Máj 13, 2009 12:11 am
Has thanked: 1 time
Been thanked: 109 times

Poslaťod bornos » Uto Apr 05, 2011 4:37 am

Pro stahování doporučuji použít Jdownloader

Stažení:
Odkaz na stiahnutie:
Pre zobrazenie odkazov sa musíte alebo

Farell
Top Prispievateľ
Top Prispievateľ
 
Príspevky: 328
Registrovaný: Ned Apr 27, 2008 12:53 am
Has thanked: 3 times
Been thanked: 35 times

Poslaťod Farell » Sob Apr 16, 2011 11:20 pm

Terminátor / 1080p / DD 5.1ENG , DD 5.1CZ
Obrázok

Obrázok


Obrázok
Odkaz na stiahnutie:
Pre zobrazenie odkazov sa musíte alebo


Obrázok
Obrázok
Odkaz na stiahnutie:
Pre zobrazenie odkazov sa musíte alebo


Obrázok
Odkaz na stiahnutie:
Pre zobrazenie odkazov sa musíte alebo


Obrázok


Odkaz na stiahnutie:
Pre zobrazenie odkazov sa musíte alebo

bornos
Excellent User
Excellent User
 
Príspevky: 1103
Registrovaný: Str Máj 13, 2009 12:11 am
Has thanked: 1 time
Been thanked: 109 times

Poslaťod bornos » Štv Jún 02, 2011 12:29 am

Pro stahování doporučuji použít Jdownloader

Stažení:
Odkaz na stiahnutie:
Pre zobrazenie odkazov sa musíte alebo

uploading.up
Excellent User
Excellent User
 
Príspevky: 1080
Registrovaný: Pon Jan 17, 2011 2:42 am
Has thanked: 0 time
Been thanked: 82 times

Poslaťod uploading.up » Pia Jún 10, 2011 11:39 pm

The Terminator / Terminátor / CZ, EN
The.Terminator.1984.1080p.BluRay.x264-hV.CZ

Obrázok

Odkaz na stiahnutie:
Pre zobrazenie odkazov sa musíte alebo


Sci-Fi / Akční / Thriller
USA, 1984

Z roku 2029 je do Los Angeles roku 1984 vyslán zabijácký stroj podobný člověku. Má za úkol zabít Sarah Connorovou dřív, než přivede na svět syna, který se má později stát vůdcem lidí ve válce proti strojům. Lidé žijící v budoucnosti ovšem do současnosti také vyslali svého muže, který se bude snažit Sarah zachránit.


Format : Matroska at 11,1 Mbps
Length : 8,28 GiB for 1h 47mn 13s 472ms

Video #0 : AVC at 9 967 Kbps
Aspect : 1920 x 1040 (1.846) at 23.976 fps

Audio #0 : AC-3 at 448 Kbps
Infos : 6 kanály, 48,0 KHz
Language : cs

Audio #1 : AC-3 at 640 Kbps
Infos : 6 kanály, 48,0 KHz
Language : en

Titulky: CZ, EN



The.Terminator.1984.1080p.BluRay.x264-hV.CZ //1GB links, kombinovatelne//

Fileserve:
Odkaz na stiahnutie:
Pre zobrazenie odkazov sa musíte alebo


Filesonic:
Odkaz na stiahnutie:
Pre zobrazenie odkazov sa musíte alebo


Uploadstation:
Odkaz na stiahnutie:
Pre zobrazenie odkazov sa musíte alebo



Odkaz na stiahnutie:
Pre zobrazenie odkazov sa musíte alebo

Beng.D
Prispievateľ
Prispievateľ
 
Príspevky: 180
Registrovaný: Ned Feb 27, 2011 12:00 pm
Has thanked: 0 time
Been thanked: 15 times

Poslaťod Beng.D » Sob Júl 02, 2011 7:08 pm

Terminátor / Terminator (1984)/1080/CZ


Obrázok



Obrázok

Sci-Fi / Akční / Thriller

USA, 1984, 108 min
Režie:
James Cameron
Hudba:
Brad Fiedel
Hrají:
Arnold Schwarzenegger, Michael Biehn, Linda Hamilton, Paul Winfield, Lance Henriksen, Rick Rossovich, Earl Boen, Dick Miller, Franco Columbu, Bill Paxton, Marianne Muellerleile, Brian Thompson, Harriet Medin

Z roku 2029 je do Los Angeles roku 1984 vyslán zabijácký stroj podobný člověku. Má za úkol zabít Sarah Connorovou dřív, než přivede na svět syna, který se má později stát vůdcem lidí ve válce proti strojům. Lidé žijící v budoucnosti ovšem do současnosti také vyslali svého muže, který se bude snažit Sarah zachránit.



Obrázok
Odkaz na stiahnutie:
Pre zobrazenie odkazov sa musíte alebo



Obrázok
Format : Matroska
File size : 8.19 GiB
Duration : 1h 47mn
Overall bit rate : 10.9 Mbps
Movie name : The.Terminator.1984.720p.BluRay.x264-ESiR
Encoded date : UTC 2009-01-04 11:05:21
Writing application : mkvmerge v2.2.0 ('Turn It On Again') built on Mar 4 2008 12:58:26
Writing library : libebml v0.7.7 + libmatroska v0.8.1
Cover : Yes / Yes

Video
ID : 2
Format : AVC
Format/Info : Advanced Video Codec
Format profile : High@L5.1
Format settings, CABAC : Yes
Format settings, ReFrames : 8 frames
Muxing mode : Container profile=Unknown@5.1
Codec ID : V_MPEG4/ISO/AVC
Duration : 1h 47mn
Bit rate : 9 967 Kbps
Width : 1 920 pixels
Height : 1 040 pixels
Display aspect ratio : 16:9
Frame rate : 23.976 fps
Color space : YUV
Chroma subsampling : 4:2:0
Bit depth : 8 bits
Scan type : Progressive
Bits/(Pixel*Frame) : 0.208
Stream size : 7.30 GiB (89%)
Writing library : x264 core 56 svn-667C
Encoding settings : cabac=1 / ref=5 / deblock=1:-1:-1 / analyse=0x3:0x133 / me=umh / subme=6 / brdo=1 / mixed_ref=1 / me_range=16 / chroma_me=1 / trellis=1 / 8x8dct=1 / cqm=2 / deadzone=4,6 / chroma_qp_offset=0 / threads=3 / nr=0 / decimate=1 / mbaff=0 / bframes=3 / b_pyramid=1 / b_adapt=1 / b_bias=0 / direct=3 / wpredb=1 / bime=1 / keyint=250 / keyint_min=25 / scenecut=40(pre) / rc=2pass / bitrate=9967 / ratetol=1.0 / rceq='blurCplx^(1-qComp)' / qcomp=0.60 / qpmin=10 / qpmax=51 / qpstep=4 / cplxblur=20.0 / qblur=0.5 / ip_ratio=1.40 / pb_ratio=1.30 / zones=148787,154246,b=0.15 / aq=1:0.3:15.0
Language : English

Audio #1
ID : 1
Format : AC-3
Format/Info : Audio Coding 3
Mode extension : CM (complete main)
Codec ID : A_AC3
Duration : 1h 47mn
Bit rate mode : Constant
Bit rate : 640 Kbps
Channel(s) : 6 channels
Channel positions : Front: L C R, Side: L R, LFE
Sampling rate : 48.0 KHz
Stream size : 491 MiB (6%)
Language : English

Audio #2
ID : 3
Format : AC-3
Format/Info : Audio Coding 3
Mode extension : CM (complete main)
Codec ID : A_AC3
Duration : 1h 47mn
Bit rate mode : Constant
Bit rate : 320 Kbps
Channel(s) : 6 channels
Channel positions : Front: L C R, Side: L R, LFE
Sampling rate : 48.0 KHz
Video delay : 32ms
Stream size : 245 MiB (3%)
Language : Czech

Text
ID : 4
Format : UTF-8
Codec ID : S_TEXT/UTF8
Codec ID/Info : UTF-8 Plain Text
Language : Czech




Obrázok


Obrázok
Odkaz na stiahnutie:
Pre zobrazenie odkazov sa musíte alebo



Obrázok
Odkaz na stiahnutie:
Pre zobrazenie odkazov sa musíte alebo



Obrázok
bez hesla

slon335
Excellent User
Excellent User
 
Príspevky: 872
Registrovaný: Pon Mar 30, 2009 11:38 pm
Has thanked: 0 time
Been thanked: 176 times

Poslaťod slon335 » Sob Aug 27, 2011 12:17 am

The.Terminator.1984.1080p.BluRay.x264-hV (CZ, EN)
TERMINÁTOR (The Terminator) 1984

Obrázok

Z roku 2029 je do Los Angeles roku 1984 vyslán zabijácký stroj podobný člověku. Má za úkol zabít Sarah Connorovou dřív, než přivede na svět syna, který se má později stát vůdcem lidí ve válce proti strojům. Lidé žijící v budoucnosti ovšem do současnosti také vyslali svého muže, který se bude snažit Sarah zachránit.

CSFD - IMBD
Odkaz na stiahnutie:
Pre zobrazenie odkazov sa musíte alebo


INFO
Odkaz na stiahnutie:
Pre zobrazenie odkazov sa musíte alebo


DOWNLOAD - FILESONIC
Odkaz na stiahnutie:
Pre zobrazenie odkazov sa musíte alebo


DOWNLOAD - WUPLOAD
Odkaz na stiahnutie:
Pre zobrazenie odkazov sa musíte alebo


DOWNLOAD - UPLOADING
Odkaz na stiahnutie:
Pre zobrazenie odkazov sa musíte alebo


- BEZ HESLA
- NA JINÉ SERVERY UPLOADOVAT NEBUDU, TAKŽE MNĚ O TO NEŽÁDEJTE

slon335
Excellent User
Excellent User
 
Príspevky: 872
Registrovaný: Pon Mar 30, 2009 11:38 pm
Has thanked: 0 time
Been thanked: 176 times

Poslaťod slon335 » Sob Sep 03, 2011 12:07 pm

The.Terminator.1984.720p.BluRay.x264.AC3-jDM (CZ, EN)
TERMINÁTOR (The Terminator) 1984

Obrázok

Z roku 2029 je do Los Angeles roku 1984 vyslán zabijácký stroj podobný člověku. Má za úkol zabít Sarah Connorovou dřív, než přivede na svět syna, který se má později stát vůdcem lidí ve válce proti strojům. Lidé žijící v budoucnosti ovšem do současnosti také vyslali svého muže, který se bude snažit Sarah zachránit.

CSFD - IMBD
Odkaz na stiahnutie:
Pre zobrazenie odkazov sa musíte alebo


INFO
Odkaz na stiahnutie:
Pre zobrazenie odkazov sa musíte alebo


SAMPLE
Odkaz na stiahnutie:
Pre zobrazenie odkazov sa musíte alebo


DOWNLOAD - FILESONIC
Odkaz na stiahnutie:
Pre zobrazenie odkazov sa musíte alebo


DOWNLOAD - WUPLOAD
Odkaz na stiahnutie:
Pre zobrazenie odkazov sa musíte alebo


DOWNLOAD - FILESERVE
Odkaz na stiahnutie:
Pre zobrazenie odkazov sa musíte alebo


- BEZ HESLA
- NA JINÉ SERVERY UPLOADOVAT NEBUDU, TAKŽE MNĚ O TO NEŽÁDEJTE

m1cr0n
Excellent User
Excellent User
 
Príspevky: 997
Registrovaný: Uto Nov 03, 2009 6:31 pm
Has thanked: 0 time
Been thanked: 19 times

Poslaťod m1cr0n » Štv Nov 24, 2011 11:54 pm

The.Terminator.1984.720p.BluRay.x264-ESiR.cz
Obrázok

Info:
Odkaz na stiahnutie:
Pre zobrazenie odkazov sa musíte alebo


Screens:
Odkaz na stiahnutie:
Pre zobrazenie odkazov sa musíte alebo


DL:
Odkaz na stiahnutie:
Pre zobrazenie odkazov sa musíte alebo


nebo

Odkaz na stiahnutie:
Pre zobrazenie odkazov sa musíte alebo


nebo

Odkaz na stiahnutie:
Pre zobrazenie odkazov sa musíte alebo


nebo

Odkaz na stiahnutie:
Pre zobrazenie odkazov sa musíte alebo


nebo

Odkaz na stiahnutie:
Pre zobrazenie odkazov sa musíte alebo

sidious89
Gold User
Gold User
 
Príspevky: 1697
Registrovaný: Pia Dec 30, 2011 3:12 am
Has thanked: 0 time
Been thanked: 64 times

Re: Terminátor / Terminator (1984)

Poslaťod sidious89 » Uto Apr 17, 2012 9:35 pm

The.Terminator.1984.720p.BluRay.x264.CZ-ESiR


Obrázok


Odkaz na stiahnutie:
Pre zobrazenie odkazov sa musíte alebo



HELLSHARE:
Odkaz na stiahnutie:
Pre zobrazenie odkazov sa musíte alebo

Obrázok užívateľa
uploaderup
Top Prispievateľ
Top Prispievateľ
 
Príspevky: 350
Registrovaný: Ned Nov 03, 2013 3:04 pm
Has thanked: 20 times
Been thanked: 79 times

Poslaťod uploaderup » Sob Júl 05, 2014 2:32 pm

Terminátor / Terminator (1984)
Rls: Terminátor_1_(The_Terminator)_CZ-ENG_Dabing+CZ_Titulky_(1984)_720p-Bluray
Obrázok

Odkaz na stiahnutie:
Pre zobrazenie odkazov sa musíte alebo


Format : Matroska
Format version : Version 2
File size : 5.16 GiB
Duration : 1h 47mn
Overall bit rate : 6 882 Kbps
Movie name : The Terminator by Erwin
Encoded date : UTC 2013-01-19 15:17:39
Writing application : mkvmerge v5.7.0 ('The Whirlwind') built on Jul 8 2012 20:08:51
Writing library : libebml v1.2.3 + libmatroska v1.3.0

Video
ID : 4
Format : AVC
Format/Info : Advanced Video Codec
Format profile : High@L4.0
Format settings, CABAC : No
Format settings, ReFrames : 1 frame
Muxing mode : Header stripping
Codec ID : V_MPEG4/ISO/AVC
Duration : 1h 47mn
Bit rate : 5 000 Kbps
Width : 1 280 pixels
Height : 688 pixels
Display aspect ratio : 1.85:1
Frame rate mode : Constant
Frame rate : 23.976 fps
Color space : YUV
Chroma subsampling : 4:2:0
Bit depth : 8 bits
Scan type : Progressive
Bits/(Pixel*Frame) : 0.237
Stream size : 3.59 GiB (70%)
Title : ErwinRommel HD
Writing library : x264 core 80 r1378+57 6f6b50a
Encoding settings : cabac=0 / ref=1 / deblock=1:0:0 / analyse=0x3:0x113 / me=hex / subme=7 / psy=1 / psy_rd=1.0:0.0 / mixed_ref=0 / me_range=16 / chroma_me=1 / trellis=0 / 8x8dct=1 / cqm=0 / deadzone=21,11 / fast_pskip=1 / chroma_qp_offset=-2 / threads=3 / sliced_threads=0 / nr=0 / decimate=1 / mbaff=0 / constrained_intra=0 / bframes=0 / wpredp=2 / keyint=250 / keyint_min=25 / scenecut=40 / rc_lookahead=40 / rc=abr / mbtree=1 / bitrate=5000 / ratetol=1.0 / qcomp=0.60 / qpmin=10 / qpmax=51 / qpstep=4 / ip_ratio=1.40 / aq=1:1.00
Default : Yes
Forced : No

Audio #1
ID : 1
Format : DTS
Format/Info : Digital Theater Systems
Mode : 16
Format settings, Endianness : Big
Muxing mode : Header stripping
Codec ID : A_DTS
Duration : 1h 47mn
Bit rate mode : Constant
Bit rate : 1 509 Kbps
Channel(s) : 6 channels
Channel positions : Front: L C R, Side: L R, LFE
Sampling rate : 48.0 KHz
Bit depth : 24 bits
Compression mode : Lossy
Delay relative to video : 11ms
Stream size : 1.13 GiB (22%)
Title : ENG-DTS DD 5.1 1510kbps
Language : English
Default : No
Forced : No

Audio #2
ID : 2
Format : AC-3
Format/Info : Audio Coding 3
Mode extension : CM (complete main)
Format settings, Endianness : Big
Muxing mode : Header stripping
Codec ID : A_AC3
Duration : 1h 47mn
Bit rate mode : Constant
Bit rate : 448 Kbps
Channel(s) : 6 channels
Channel positions : Front: L C R, Side: L R, LFE
Sampling rate : 48.0 KHz
Bit depth : 16 bits
Compression mode : Lossy
Delay relative to video : 7s 170ms
Stream size : 344 MiB (7%)
Title : CZ-AC3 DD 5.1 448kbps
Language : Czech
Default : Yes
Forced : No

Text
ID : 3
Format : UTF-8
Codec ID : S_TEXT/UTF8
Codec ID/Info : UTF-8 Plain Text
Title : CZ Titulky
Language : Czech
Default : Yes
Forced : No


Odkaz na stiahnutie:
Pre zobrazenie odkazov sa musíte alebo


Odkaz na stiahnutie:
Pre zobrazenie odkazov sa musíte alebo


Späť na HD Movie - SK/CZ Filmy

Kto je on-line

Užívatelia prezerajúci fórum: Yahoo [Bot] a 0 hostia