//

Tísňová linka / Call, The (2013)

Dabované zahraničné filmy, slovenská a česká produkcia
momo18
Top Prispievateľ
Top Prispievateľ
 
Príspevky: 267
Registrovaný: Pia Júl 18, 2008 5:37 pm
Poďakoval: 0 krát
Poďakovali mi: 17 krát

Tísňová linka / Call, The (2013)

Poslaťod momo18 » Str Okt 15, 2014 4:57 pm

Tísňová linka / Call, The 2013 CZ

Obrázok

CSFD 73%

Odkaz na stiahnutie:
Pre zobrazenie odkazov sa musíte alebo



VIDEO:

General

Format : AVI
Format/Info : Audio Video Interleave
File size : 1.45 GiB
Duration : 1h 34mn
Overall bit rate : 2 210 Kbps
Movie name : The Call (2013)
Director : Vaippp
Genre : Thriller
Writing application : VirtualDubMod 1.5.10.1 (build 2366/release)
Writing library : VirtualDubMod build 2366/release
Original source form/Name : Movie
Copyright : HQ-ViDEO
Comment : BDRip

Video
ID : 0
Format : MPEG-4 Visual
Format profile : Advanced Simple@L5
Format settings, BVOP : Yes
Format settings, QPel : No
Format settings, GMC : No warppoints
Format settings, Matrix : Custom
Codec ID : XVID
Codec ID/Hint : XviD
Duration : 1h 34mn
Bit rate : 1 753 Kbps
Width : 704 pixels
Height : 384 pixels
Display aspect ratio : 1.85:1
Frame rate : 23.976 fps
Color space : YUV
Chroma subsampling : 4:2:0
Bit depth : 8 bits
Scan type : Progressive
Compression mode : Lossy
Bits/(Pixel*Frame) : 0.270
Stream size : 1.15 GiB (79%)
Writing library : XviD 73

Audio
ID : 1
Format : AC-3
Format/Info : Audio Coding 3
Mode extension : CM (complete main)
Format settings, Endianness : Big
Codec ID : 2000
Duration : 1h 34mn
Bit rate mode : Constant
Bit rate : 448 Kbps
Channel(s) : 6 channels
Channel positions : Front: L C R, Side: L R, LFE
Sampling rate : 48.0 KHz
Bit depth : 16 bits
Compression mode : Lossy
Delay relative to video : 29ms
Stream size : 302 MiB (20%)
Alignment : Split accross interleaves
Interleave, duration : 42 ms (1.00 video frame)
Interleave, preload duration : 500 ms

Obrázok

Odkaz na stiahnutie:
Pre zobrazenie odkazov sa musíte alebo

Odkaz na stiahnutie:
Pre zobrazenie odkazov sa musíte alebo

Odkaz na stiahnutie:
Pre zobrazenie odkazov sa musíte alebo

balu9
Prispievateľ
Prispievateľ
 
Príspevky: 120
Registrovaný: Str Jan 28, 2009 3:46 am
Poďakoval: 2 krát
Poďakovali mi: 5 krát

Tísňová linka / Call, The (2013)

Poslaťod balu9 » Ned Feb 22, 2015 10:05 pm

Tísňová linka / Call, The (2013)

CZ Dabing

Obrázok

Odkaz na stiahnutie:
Pre zobrazenie odkazov sa musíte alebo


Obsah filmu: Tísňová linka je bravurně natočený napínavý thriller s okouzlující Halle Berry v hlavní roli. Její Jordan je zkušená operátorka tísňové linky, které změní život volání zoufalé dívky, jež se právě stala obětí únosu. Pro ni je telefonické spojení s tísňovou linkou jedinou nadějí a slova pronášená klidným a rozvážným hlasem ženy na druhém konci telefonu ji dodávají odvahu. Operátorka se rozhodne na vlastní pěst zachránit dívku a postavit se tváří tvář vrahovi, s nímž se v minulosti bohužel již setkala.


Formát : AVI
Formát/ : Audio Video Interleave
Velikost souboru : 1,45 GiB
Duration/String : 1h 34mn
Celkový BitRate : 2 210 Kbps
Název filmu : The Call (2013)
Director : Vaippp
žánr : Thriller
Použitý software : VirtualDubMod 1.5.10.1 (build 2366/release)
Enkódoval : VirtualDubMod build 2366/release
/Název : Movie
Copyright : HQ-ViDEO
Komentář : BDRip

Video
ID : 0
Formát : MPEG-4 Visual
Format_Profile : Advanced Simple@L5
Format_Settings_BVOP/String : 1
Format_Settings_QPel/String : Ne
Format_Settings_GMC/String : 0 warppoint
CodecID : XVID
/ : XviD
Duration/String : 1h 34mn
Bit rate : 1 753 Kbps
Šířka : 704pixely
Výška : 384pixely
Poměr stran : 1,85:1
Frame rate : 23,976 fps
ColorSpace : YUV
ChromaSubsampling : 4:2:0
BitDepth/String : 8 bits
ScanType/String : Progressive
Bits/(Pixel*Frame) : 0.270
StreamSize/String : 1,15 GiB (79%)
Enkódoval : XviD 73

Audio
ID : 1
Formát : AC-3
Formát/ : Audio Coding 3
Format_Settings_ModeExtension : CM (complete main)
Format_Settings_Endianness : Big
CodecID : 2000
Duration/String : 1h 34mn
Bit rate : 448 Kbps
Kanál(y) : 6 kanály
Channel positions : Front: L C R, Side: L R, LFE
Sampling rate : 48,0 KHz
BitDepth/String : 16 bits
Video delay : 29ms
StreamSize/String : 302 MiB (20%)
Interleave_Duration/String : 42 ms (1.00 video frames)
Interleave_Preload/String : 500 ms



Odkaz na stiahnutie:
Pre zobrazenie odkazov sa musíte alebo


Odkaz na stiahnutie:
Pre zobrazenie odkazov sa musíte alebo


Všetky moje party-linky sú kombinovateľné fastshare a hellshare


Bez hesla

Odkaz na stiahnutie:
Pre zobrazenie odkazov sa musíte alebo


!!!Všetky moje linky sú plne funkčné a mnou preverené!!!


Späť na Movie - SK/CZ Filmy ´´

Kto je on-line

Užívatelia prehlaidávajú toto fórum: csaba928, Draken2000, hába2, jozef500, kralov, robot380, thalarion22, twinko, ufo222, zend2