Obsah fóra www.ourphorum.com





Trainspotting (1996)

Movie - SK/CZ Filmy ´´

(SK) stiahnuť zadarmo (CZ) ke stazení zdarma

Podporujeme tieto filehostingové servery : Share-rapid | Hellshare | Rapidshare | CZshare | Upnito | UlozTO

Pridať novú tému   Zaslať odpoveď    Obsah fóra www.ourphorum.com -> Movie - SK/CZ Filmy ´´
Zobraziť predchádzajúcu tému :: Zobraziť nasledujúcu tému  
Autor

Správa

Pedro696
Prispievateľ
Prispievateľ


User is Offline

Založený: 02 september 2009

Príspevky: 59

Poďakovaní : 13 v 9 príspevkoch


Reputácia :

79.9

PríspevokZaslal: Po február 15, 2010 6:28 pm    Predmet: Trainspotting (1996) Odpovedať s citátom

Trainspotting (1996) – CZ dabing


Tento film som dlho nevedel najst na ziadnom fore a teraz ked ho konecne mam tak ho Vam davam, fakt asi moj najlepsi film vobec, vrelo odporucam

http://www.csfd.cz/film/901-trainspotting/ // 89% - 74. najlepší film na CSFD
http://www.imdb.com/title/tt0117951/ // 8,2 – 154. najlepší film na IMDB



kvalita videa:


tu je par mojich screenov:




---------- D – O – W – N – L – O – A – D ----------

-> Spolu: 699 MB
-> linky su kombinovatelne

-> HOTFILE.com


FastShare.cz: Milióny súborov na stiahnutie zadarmo alebo neobmedzenou rýchlosťou 140 GB za € 4!





Stiahnut subor : Link na stiahnutie sa zobrazi az po zaregistrovani a prihlaseni.Zaregistrujte sa pre plnohodnotny pristup a vyuzivanie fora.



-> Heslo: bez hesla

-> poprosim nereuploadovat !!!, hotfile je v poho na free stahovanie a ma velmi lacne premium ucty tak tahajte
Návrat hore
Zobrazit informácie o autorovi Odoslať súkromnú správu
Za tento príspevok ti poďakovali : dev999

KiDMAN
Prispievateľ
Prispievateľ


User is Offline

Založený: 17 jún 2008
Bydlisko: Warez downtown
Príspevky: 121

Poďakovaní : 22 v 18 príspevkoch


Reputácia :

51.5

Hlasovalo : 3

PríspevokZaslal: Po apríl 05, 2010 6:05 pm    Predmet: Odpovedať s citátom

Trainspotting / Trainspotting (1996) CZ





FastShare.cz: Milióny súborov na stiahnutie zadarmo alebo neobmedzenou rýchlosťou 140 GB za € 4!





Stiahnut subor : Link na stiahnutie sa zobrazi az po zaregistrovani a prihlaseni.Zaregistrujte sa pre plnohodnotny pristup a vyuzivanie fora.






FastShare.cz: Milióny súborov na stiahnutie zadarmo alebo neobmedzenou rýchlosťou 140 GB za € 4!





Stiahnut subor : Link na stiahnutie sa zobrazi az po zaregistrovani a prihlaseni.Zaregistrujte sa pre plnohodnotny pristup a vyuzivanie fora.






FastShare.cz: Milióny súborov na stiahnutie zadarmo alebo neobmedzenou rýchlosťou 140 GB za € 4!





Stiahnut subor : Link na stiahnutie sa zobrazi az po zaregistrovani a prihlaseni.Zaregistrujte sa pre plnohodnotny pristup a vyuzivanie fora.






FastShare.cz: Milióny súborov na stiahnutie zadarmo alebo neobmedzenou rýchlosťou 140 GB za € 4!





Stiahnut subor : Link na stiahnutie sa zobrazi az po zaregistrovani a prihlaseni.Zaregistrujte sa pre plnohodnotny pristup a vyuzivanie fora.


_________________
Poděkovat je slušnost...

Moje linky jsou volně šiřitelné, ale pište k tomu název uploadera - KiDMAN
Návrat hore
Zobrazit informácie o autorovi Odoslať súkromnú správu

861016
Excellent User
Excellent User


User is Offline

Založený: 13 apríl 2010

Príspevky: 888

Poďakovaní : 108 v 92 príspevkoch


Reputácia :

232.7

Hlasovalo : 3

PríspevokZaslal: Št apríl 15, 2010 4:08 am    Predmet: Trainspotting (1996) Odpovedať s citátom




FastShare.cz: Milióny súborov na stiahnutie zadarmo alebo neobmedzenou rýchlosťou 140 GB za € 4!





Stiahnut subor : Link na stiahnutie sa zobrazi az po zaregistrovani a prihlaseni.Zaregistrujte sa pre plnohodnotny pristup a vyuzivanie fora.






FastShare.cz: Milióny súborov na stiahnutie zadarmo alebo neobmedzenou rýchlosťou 140 GB za € 4!





Stiahnut subor : Link na stiahnutie sa zobrazi az po zaregistrovani a prihlaseni.Zaregistrujte sa pre plnohodnotny pristup a vyuzivanie fora.






FastShare.cz: Milióny súborov na stiahnutie zadarmo alebo neobmedzenou rýchlosťou 140 GB za € 4!





Stiahnut subor : Link na stiahnutie sa zobrazi az po zaregistrovani a prihlaseni.Zaregistrujte sa pre plnohodnotny pristup a vyuzivanie fora.




Další snímek tvůrčího tria, skládajícího se z režiséra Dannyho Boylea, scénáristy Johna Hodge a producenta Andrewa MacDonalda, si získal ještě větší celosvětovou popularitu než předchozí Mělký hrob. Ve vyprávění hlavního "hrdiny", asociálního mladíka Rentona, se odkrývá bizarní svět revolty proti současné konzumní společnosti. Renton a jeho skotští přátelé jsou totiž narkomané, jejichž jedinou starostí je sehnat další dávku. Jenže "skutečný život" smutné protagonisty "semele" a změní. Někteří nepřežijí, z jiných - jako například právě z Rentona - se stanou "normální" lidé. Epizodické vyprávění vytváří zvláštní mozaiku, z níž se velmi působivě vynořuje pochmurný obraz jedné "ztracené" generace. Snímek těží z tradic britského civilismu a dokumetárních filmů se sociální tématikou, ale zároveň je radikálně inovuje pomocí surrealistických hříček, černého humoru, dynamické kamery, střihu a charakterizace hlavních postav. Režisér Boyle svým pozorováním světa z nevšedního (a generačně vypjatého) úhlu opět provokuje měšťáckou společnost. Svým filmem jako hozenou soubojovou rukavicí políčkuje standardní středostavovskou morálku a tradiční hodnoty. Zároveň si postupně získává u nejmladšího publika přívlastek kultovního režiséra (důležitou roli v tomto procesu hraje hudební složka filmu, obsazená právě kultovními jmény anglosaské scény 80. a 90. let).



Návrat hore
Zobrazit informácie o autorovi Odoslať súkromnú správu
Za tento príspevok ti poďakovali : aduas

Technik68
Power User
Power User


User is Offline

Založený: 31 október 2008

Príspevky: 559

Poďakovaní : 451 v 177 príspevkoch


Reputácia :

359.5

Hlasovalo : 18

PríspevokZaslal: Št apríl 15, 2010 8:59 am    Predmet: Odpovedať s citátom

Trainspotting (1996) (CZ)




CSFD:



FastShare.cz: Milióny súborov na stiahnutie zadarmo alebo neobmedzenou rýchlosťou 140 GB za € 4!





Stiahnut subor : Link na stiahnutie sa zobrazi az po zaregistrovani a prihlaseni.Zaregistrujte sa pre plnohodnotny pristup a vyuzivanie fora.



INFO:

Drama
Velká Británie, 1996

Režie: Danny Boyle
Hrají: Ewan McGregor, Ewen Bremner, Jonny Lee Miller, Kevin McKidd, Robert Carlyle, Kelly Macdonald, Peter Mullan, James Cosmo, Susan Vidler, Shirley Henderson, Irvine Welsh, Keith Allen, Kevin Allen, John Hodge


OBSAH :

citácia:
Další snímek tvůrčího tria, skládajícího se z režiséra Dannyho Boylea, scénáristy Johna Hodge a producenta Andrewa MacDonalda, si získal ještě větší celosvětovou popularitu než předchozí Mělký hrob. Ve vyprávění hlavního "hrdiny", asociálního mladíka Rentona, se odkrývá bizarní svět revolty proti současné konzumní společnosti. Renton a jeho skotští přátelé jsou totiž narkomané, jejichž jedinou starostí je sehnat další dávku. Jenže "skutečný život" smutné protagonisty "semele" a změní. Někteří nepřežijí, z jiných - jako například právě z Rentona - se stanou "normální" lidé. Epizodické vyprávění vytváří ...


KVALITA :

AVI Info:
File size : 850 MiB
Duration : 1h 30mn
Overall bit rate : 1 316 Kbps

Video
Format : MPEG-4 Visual
Codec ID : XVID
Codec ID/Hint : XviD
Duration : 1h 30mn
Bit rate : 1 188 Kbps
Width : 672 pixels
Height : 384 pixels
Frame rate : 25.000 fps
Resolution : 24 bits
Stream size : 767 MiB (90%)

Audio
Format : MPEG Audio
Format version : Version 1
Format profile : Layer 3
Codec ID : 55
Codec ID/Hint : MP3
Duration : 1h 29mn
Bit rate : 117 Kbps
Minimum bit rate : 128 Kbps
Channel(s) : 2 channels
Sampling rate : 48.0 KHz
Resolution : 16 bits


DOWNLOAD :



FastShare.cz: Milióny súborov na stiahnutie zadarmo alebo neobmedzenou rýchlosťou 140 GB za € 4!





Stiahnut subor : Link na stiahnutie sa zobrazi az po zaregistrovani a prihlaseni.Zaregistrujte sa pre plnohodnotny pristup a vyuzivanie fora.


_________________
--

"Ďakujem" poteší, alebo pošli "(+)" !!!
--
Upozornenie!Táto správa neslúži ako návod pre získavanie nelegálnych kopii a ani to nijako nepodporuje!!!
Návrat hore
Zobrazit informácie o autorovi Odoslať súkromnú správu
Za tento príspevok ti poďakovali : tomastn, blizo57, zmiri, BAVITsaCHCEM, vladis333, carrieb, kamquer, Hrusciacik

slon335
Excellent User
Excellent User


User is Offline

Založený: 30 marec 2009

Príspevky: 875

Poďakovaní : 183 v 139 príspevkoch


Reputácia :

289.5

Hlasovalo : 1

PríspevokZaslal: Pi september 03, 2010 2:05 pm    Predmet: Odpovedať s citátom

Trainspotting (Trainspotting) 1996
Trainspotting.1996.480p.BRRip.Xvid.CZ.jDM



Přeslavný, kultovní, vtipný i tragický zároveň a místy taky lehce nechutný film o drogách z dílny Dannyho Boyla. Jeden vůbec z nejpřesvědčivějších v daném žánru.
Líčí bez obalu všední životy edinburgských feťáků a skrývá v sobě nejen nezbytné poselství, ale především poučení pro další drogychtivé generace. Ústřední postavou je (stejně jako v taktéž slavné knize Irvina Welshe, jejíž adaptací snímek je) asociální mladík jménem Mark Renton, jenž nechodí do školy, ba ani do práce - povětšinu času se stará jen o to své. Totiž denní dávku heroinu. Obdobný osud mají také jeho ,,takzvaní kámoši'' - Spud (tak trochu roztěkaný, ale upřímný ňouma, co má zálibu v drogách jako každý jiný), Sickboy (poměrně sofistikovaný fanda Jamese Bonda - s duší obchodníka) a konečně výjimka potvrzující pravidlo - Mr. Francis Babgie (řezník, jehož jedinou zálibou je řezat lidi, nikoliv drogy). Film v podstatě líčí jediné - cestu Marka Renona z pekla feťáků zpátky nahoru, mezi tzv. ,,normální'' lid. Jeho ,,cesta ven'' je doprovázena různými bizarními historkami a glosami, aby nakonec došel k nevyhnutelnému zjištění, že jestli chce přestat brát, najít si práci a být ,,stejný jako vy'', musí se nutně zbavit svých tzv. kámošů a zkusit štěstí jinde a jinak... Otázka ovšem zní: Je tohle ten život, co si chce vybrat, aby ho učinil šťastným a spokojeným člověkem? Nebo je to jiná, společensky přijatelnější cesta do pekel?


CSFD - FDB


FastShare.cz: Milióny súborov na stiahnutie zadarmo alebo neobmedzenou rýchlosťou 140 GB za € 4!





Stiahnut subor : Link na stiahnutie sa zobrazi az po zaregistrovani a prihlaseni.Zaregistrujte sa pre plnohodnotny pristup a vyuzivanie fora.



SCREEN + INFO


DOWNLOAD - HOTFILE


FastShare.cz: Milióny súborov na stiahnutie zadarmo alebo neobmedzenou rýchlosťou 140 GB za € 4!





Stiahnut subor : Link na stiahnutie sa zobrazi az po zaregistrovani a prihlaseni.Zaregistrujte sa pre plnohodnotny pristup a vyuzivanie fora.



DOWNLOAD - QUICKSHARE


FastShare.cz: Milióny súborov na stiahnutie zadarmo alebo neobmedzenou rýchlosťou 140 GB za € 4!





Stiahnut subor : Link na stiahnutie sa zobrazi az po zaregistrovani a prihlaseni.Zaregistrujte sa pre plnohodnotny pristup a vyuzivanie fora.



DOWNLOAD - SHARERAPID


FastShare.cz: Milióny súborov na stiahnutie zadarmo alebo neobmedzenou rýchlosťou 140 GB za € 4!





Stiahnut subor : Link na stiahnutie sa zobrazi az po zaregistrovani a prihlaseni.Zaregistrujte sa pre plnohodnotny pristup a vyuzivanie fora.



LINKY LZE KOMBINOVAT
BEZ HESLA
Návrat hore
Zobrazit informácie o autorovi Odoslať súkromnú správu
Za tento príspevok ti poďakovali : miricleboy

Annicka
Power User
Power User


User is Offline

Založený: 05 máj 2009

Príspevky: 430

Poďakovaní : 52 v 42 príspevkoch


Reputácia :

158.6

Hlasovalo : 1

PríspevokZaslal: St marec 09, 2011 10:48 am    Predmet: Odpovedať s citátom

Trainspotting (1996)



Csfd:

FastShare.cz: Milióny súborov na stiahnutie zadarmo alebo neobmedzenou rýchlosťou 140 GB za € 4!





Stiahnut subor : Link na stiahnutie sa zobrazi az po zaregistrovani a prihlaseni.Zaregistrujte sa pre plnohodnotny pristup a vyuzivanie fora.


: aktuálně 88%

Další snímek tvůrčího tria, skládajícího se z režiséra Dannyho Boylea, scénáristy Johna Hodge a producenta Andrewa MacDonalda, si získal ještě větší celosvětovou popularitu než předchozí Mělký hrob. Ve vyprávění hlavního "hrdiny", asociálního mladíka Rentona, se odkrývá bizarní svět revolty proti současné konzumní společnosti. Renton a jeho skotští přátelé jsou totiž narkomané, jejichž jedinou starostí je sehnat další dávku. Jenže "skutečný život" smutné protagonisty "semele" a změní. Někteří nepřežijí, z jiných - jako například právě z Rentona - se stanou "normální" lidé. Epizodické vyprávění vytváří zvláštní mozaiku, z níž se velmi působivě vynořuje pochmurný obraz jedné "ztracené" generace. Snímek těží z tradic britského civilismu a dokumetárních filmů se sociální tématikou, ale zároveň je radikálně inovuje pomocí surrealistických hříček, černého humoru, dynamické kamery, střihu a charakterizace hlavních postav. Režisér Boyle svým pozorováním světa z nevšedního (a generačně vypjatého) úhlu opět provokuje měšťáckou společnost. Svým filmem jako hozenou soubojovou rukavicí políčkuje standardní středostavovskou morálku a tradiční hodnoty. Zároveň si postupně získává u nejmladšího publika přívlastek kultovního režiséra (důležitou roli v tomto procesu hraje hudební složka filmu, obsazená právě kultovními jmény anglosaské scény 80. a 90. let).

Jazyk: CZ
Typ souboru: .avi
Bitrate: 1084 Kbps
Duration: 5400.0 s
Size: 699 MB
Overhead: 0,6%

Video: MPEG-4 Visual
Bitrate: 949 Kbps
Resolution: 528x288
Frame Rate: 25.00 FPS





FastShare.cz: Milióny súborov na stiahnutie zadarmo alebo neobmedzenou rýchlosťou 140 GB za € 4!





Stiahnut subor : Link na stiahnutie sa zobrazi az po zaregistrovani a prihlaseni.Zaregistrujte sa pre plnohodnotny pristup a vyuzivanie fora.



Bez hesla!
Návrat hore
Zobrazit informácie o autorovi Odoslať súkromnú správu

frontman242
ourphorum MAFIA
ourphorum MAFIA


User is Offline

Založený: 16 júl 2008

Príspevky: 4264

Poďakovaní : 276 v 255 príspevkoch


Reputácia :

926.9

Hlasovalo : 5

PríspevokZaslal: Pi august 05, 2011 4:52 pm    Predmet: Odpovedať s citátom

Trainspotting (1996)





FastShare.cz: Milióny súborov na stiahnutie zadarmo alebo neobmedzenou rýchlosťou 140 GB za € 4!





Stiahnut subor : Link na stiahnutie sa zobrazi az po zaregistrovani a prihlaseni.Zaregistrujte sa pre plnohodnotny pristup a vyuzivanie fora.



Další snímek tvůrčího tria, skládajícího se z režiséra Dannyho Boylea, scénáristy Johna Hodge a producenta Andrewa MacDonalda, si získal ještě větší celosvětovou popularitu než předchozí Mělký hrob. Ve vyprávění hlavního "hrdiny", asociálního mladíka Rentona, se odkrývá bizarní svět revolty proti současné konzumní společnosti. Renton a jeho skotští přátelé jsou totiž narkomané, jejichž jedinou starostí je sehnat další dávku. Jenže "skutečný život" smutné protagonisty "semele" a změní. Někteří nepřežijí, z jiných - jako například právě z Rentona - se stanou "normální" lidé. Epizodické vyprávění vytváří zvláštní mozaiku, z níž se velmi působivě vynořuje pochmurný obraz jedné "ztracené" generace. Snímek těží z tradic britského civilismu a dokumetárních filmů se sociální tématikou, ale zároveň je radikálně inovuje pomocí surrealistických hříček, černého humoru, dynamické kamery, střihu a charakterizace hlavních postav. Režisér Boyle svým pozorováním světa z nevšedního (a generačně vypjatého) úhlu opět provokuje měšťáckou společnost. Svým filmem jako hozenou soubojovou rukavicí políčkuje standardní středostavovskou morálku a tradiční hodnoty. Zároveň si postupně získává u nejmladšího publika přívlastek kultovního režiséra (důležitou roli v tomto procesu hraje hudební složka filmu, obsazená právě kultovními jmény anglosaské scény 80. a 90. let).

Drama / Krimi
Velká Británie, 1996
Režie: Danny Boyle
Hrají: Ewan McGregor, Ewen Bremner, Jonny Lee Miller, Kevin McKidd, Robert Carlyle, Kelly Macdonald, Peter Mullan, James Cosmo, Susan Vidler, Shirley Henderson, Irvine Welsh, Keith Allen, Kevin Allen, John Hodge

AVI - 01:30:16 - 1750MB - DVD Rip - Cz Dabing
Video: XVID 720x416 25.00fps [Stream 00]
Audio: Dolby AC3 48000Hz 6ch 448Kbps [Stream 01]




FastShare.cz: Milióny súborov na stiahnutie zadarmo alebo neobmedzenou rýchlosťou 140 GB za € 4!





Stiahnut subor : Link na stiahnutie sa zobrazi az po zaregistrovani a prihlaseni.Zaregistrujte sa pre plnohodnotny pristup a vyuzivanie fora.





FastShare.cz: Milióny súborov na stiahnutie zadarmo alebo neobmedzenou rýchlosťou 140 GB za € 4!





Stiahnut subor : Link na stiahnutie sa zobrazi az po zaregistrovani a prihlaseni.Zaregistrujte sa pre plnohodnotny pristup a vyuzivanie fora.





FastShare.cz: Milióny súborov na stiahnutie zadarmo alebo neobmedzenou rýchlosťou 140 GB za € 4!





Stiahnut subor : Link na stiahnutie sa zobrazi az po zaregistrovani a prihlaseni.Zaregistrujte sa pre plnohodnotny pristup a vyuzivanie fora.





FastShare.cz: Milióny súborov na stiahnutie zadarmo alebo neobmedzenou rýchlosťou 140 GB za € 4!





Stiahnut subor : Link na stiahnutie sa zobrazi az po zaregistrovani a prihlaseni.Zaregistrujte sa pre plnohodnotny pristup a vyuzivanie fora.





FastShare.cz: Milióny súborov na stiahnutie zadarmo alebo neobmedzenou rýchlosťou 140 GB za € 4!





Stiahnut subor : Link na stiahnutie sa zobrazi az po zaregistrovani a prihlaseni.Zaregistrujte sa pre plnohodnotny pristup a vyuzivanie fora.


_________________
Ponúkam výhodne kredit na Share-rapid, bližšie info cez SS/PM
Návrat hore
Zobrazit informácie o autorovi Odoslať súkromnú správu
Za tento príspevok ti poďakovali : carnivore64

krucko
Power User
Power User


User is Offline

Založený: 20 december 2008

Príspevky: 692

Poďakovaní : 34 v 24 príspevkoch


Reputácia :

183.2

Hlasovalo : 3

PríspevokZaslal: Po august 08, 2011 7:19 pm    Predmet: Odpovedať s citátom

Trainspotting 1996 Dvd rip




CSFD http://www.csfd.cz/film/901-trainspotting/

INFO



FastShare.cz: Milióny súborov na stiahnutie zadarmo alebo neobmedzenou rýchlosťou 140 GB za € 4!





Stiahnut subor : Link na stiahnutie sa zobrazi az po zaregistrovani a prihlaseni.Zaregistrujte sa pre plnohodnotny pristup a vyuzivanie fora.



Download



FastShare.cz: Milióny súborov na stiahnutie zadarmo alebo neobmedzenou rýchlosťou 140 GB za € 4!





Stiahnut subor : Link na stiahnutie sa zobrazi az po zaregistrovani a prihlaseni.Zaregistrujte sa pre plnohodnotny pristup a vyuzivanie fora.

Návrat hore
Zobrazit informácie o autorovi Odoslať súkromnú správu

Technik68
Power User
Power User


User is Offline

Založený: 31 október 2008

Príspevky: 559

Poďakovaní : 451 v 177 príspevkoch


Reputácia :

359.5

Hlasovalo : 18

PríspevokZaslal: St december 14, 2011 4:38 pm    Predmet: Odpovedať s citátom




Trainspotting (1996)










CSFD :



FastShare.cz: Milióny súborov na stiahnutie zadarmo alebo neobmedzenou rýchlosťou 140 GB za € 4!





Stiahnut subor : Link na stiahnutie sa zobrazi az po zaregistrovani a prihlaseni.Zaregistrujte sa pre plnohodnotny pristup a vyuzivanie fora.




Drama / Krimi
Velká Británie, 1996

Režie: Danny Boyle
Hrají: Ewan McGregor, Ewen Bremner, Jonny Lee Miller, Kevin McKidd, Robert Carlyle, Kelly Macdonald, Peter
Mullan, James Cosmo, Susan Vidler, Shirley Henderson, Irvine Welsh, Keith Allen, Kevin Allen, John Hodge

Další snímek tvůrčího tria, skládajícího se z režiséra Dannyho Boylea, scénáristy Johna Hodge a producenta
Andrewa MacDonalda, si získal ještě větší celosvětovou popularitu než předchozí Mělký hrob. Ve vyprávění
hlavního "hrdiny", asociálního mladíka Rentona, se odkrývá bizarní svět revolty proti současné konzumní
společnosti. Renton a jeho skotští přátelé jsou totiž narkomané, jejichž jedinou starostí je sehnat další
dávku. Jenže "skutečný život" smutné protagonisty "semele" a změní. Někteří nepřežijí, z jiných - jako
například právě z Rentona - se stanou "normální" lidé. Epizodické vyprávění vytváří zvláštní mozaiku, z níž
se velmi působivě vynořuje pochmurný obraz jedné "ztracené" generace. Snímek těží z tradic britského
civilismu a dokumetárních filmů se sociální tématikou, ale zároveň je radikálně inovuje pomocí surrealisti-
ckých hříček, černého humoru, dynamické kamery, střihu a charakterizace hlavních postav. Režisér Boyle svým
pozorováním světa z nevšedního (a generačně vypjatého) úhlu opět provokuje měšťáckou společnost. Svým filmem
jako hozenou soubojovou rukavicí políčkuje standardní středostavovskou morálku a tradiční hodnoty. Zároveň
si postupně získává u nejmladšího publika přívlastek kultovního režiséra (důležitou roli v tomto procesu
hraje hudební složka filmu, obsazená právě kultovními jmény anglosaské scény 80. a 90. let).





Typ súboru:--------------------- AVI (DVD Rip)
Veľkosť súboru:----------------- 707 MB (742 295 320 bajtov)
Šírka:-------------------------- 720 pixelov
Výška:-------------------------- 400 pixelov
Trvanie:------------------------ 01:30:16
Bit.rýchlosť:------------------- 128kbps
Formát zvuku:------------------- Lame MP3
Jazyk:-------------------------- CZ
Frekvencia snímok:-------------- 23 snímky/s
Prenos.rýchlosť:---------------- 1070kbps
Veľkosť ukážky videa:----------- 12 bitov
Kompresia videa:---------------- XVID










FastShare.cz: Milióny súborov na stiahnutie zadarmo alebo neobmedzenou rýchlosťou 140 GB za € 4!





Stiahnut subor : Link na stiahnutie sa zobrazi az po zaregistrovani a prihlaseni.Zaregistrujte sa pre plnohodnotny pristup a vyuzivanie fora.







FastShare.cz: Milióny súborov na stiahnutie zadarmo alebo neobmedzenou rýchlosťou 140 GB za € 4!





Stiahnut subor : Link na stiahnutie sa zobrazi az po zaregistrovani a prihlaseni.Zaregistrujte sa pre plnohodnotny pristup a vyuzivanie fora.







FastShare.cz: Milióny súborov na stiahnutie zadarmo alebo neobmedzenou rýchlosťou 140 GB za € 4!





Stiahnut subor : Link na stiahnutie sa zobrazi az po zaregistrovani a prihlaseni.Zaregistrujte sa pre plnohodnotny pristup a vyuzivanie fora.







FastShare.cz: Milióny súborov na stiahnutie zadarmo alebo neobmedzenou rýchlosťou 140 GB za € 4!





Stiahnut subor : Link na stiahnutie sa zobrazi az po zaregistrovani a prihlaseni.Zaregistrujte sa pre plnohodnotny pristup a vyuzivanie fora.







FastShare.cz: Milióny súborov na stiahnutie zadarmo alebo neobmedzenou rýchlosťou 140 GB za € 4!





Stiahnut subor : Link na stiahnutie sa zobrazi az po zaregistrovani a prihlaseni.Zaregistrujte sa pre plnohodnotny pristup a vyuzivanie fora.











Všetky uploady sú bez hesla.
Linky sú kombinovateľné, ak je ich rovnaký počet a veľkosť.
Všetky moje uploady sú balené vo WinRARe, rozbaľujte ich iba v programe WinRAR.
Každý archív obsahuje 3%-ný záznam pre opravu dát.
_________________
--

"Ďakujem" poteší, alebo pošli "(+)" !!!
--
Upozornenie!Táto správa neslúži ako návod pre získavanie nelegálnych kopii a ani to nijako nepodporuje!!!
Návrat hore
Zobrazit informácie o autorovi Odoslať súkromnú správu
Za tento príspevok ti poďakovali : ms

fero182
Power User
Power User


User is Offline

Založený: 17 január 2009

Príspevky: 474

Poďakovaní : 23 v 18 príspevkoch


Reputácia :

159.8

Hlasovalo : 6

PríspevokZaslal: St január 30, 2013 5:24 pm    Predmet: Trainspotting (1996) Odpovedať s citátom

Trainspotting (1996)

CSFD :


FastShare.cz: Milióny súborov na stiahnutie zadarmo alebo neobmedzenou rýchlosťou 140 GB za € 4!





Stiahnut subor : Link na stiahnutie sa zobrazi az po zaregistrovani a prihlaseni.Zaregistrujte sa pre plnohodnotny pristup a vyuzivanie fora.



Info o súbore :
Veľkosť : 699.83 MB
Typ súboru : AVI
Audio: 2 channels | MP3 128 Kbps Variable
Video: 528×288px – 16 | DivX 4 (AVI) | 949 Kbps | 25.000 fps

Sťahuj :


FastShare.cz: Milióny súborov na stiahnutie zadarmo alebo neobmedzenou rýchlosťou 140 GB za € 4!





Stiahnut subor : Link na stiahnutie sa zobrazi az po zaregistrovani a prihlaseni.Zaregistrujte sa pre plnohodnotny pristup a vyuzivanie fora.


_________________
Matematika je veda o najzložitejších abstrakciách, k akým môže ľudský um dospieť.
Návrat hore
Zobrazit informácie o autorovi Odoslať súkromnú správu

juice07
Power User
Power User


User is Offline

Založený: 04 február 2013

Príspevky: 749

Poďakovaní : 15 v 14 príspevkoch


Reputácia :

57.6

Hlasovalo : 7

PríspevokZaslal: Št február 14, 2013 3:42 pm    Predmet: Odpovedať s citátom

Trainspotting (1996)








FastShare.cz: Milióny súborov na stiahnutie zadarmo alebo neobmedzenou rýchlosťou 140 GB za € 4!





Stiahnut subor : Link na stiahnutie sa zobrazi az po zaregistrovani a prihlaseni.Zaregistrujte sa pre plnohodnotny pristup a vyuzivanie fora.





citácia:
CSFD: 88%
85. nejlepší film
37. nejoblíbenější film


Drama / Krimi
Velká Británie, 1996, 94 min

Režie: Danny Boyle
Předloha: Irvine Welsh (kniha)
Scénář: John Hodge
Hrají: Ewan McGregor, Ewen Bremner, Jonny Lee Miller, Kevin McKidd, Robert Carlyle, Kelly Macdonald, Peter Mullan, James Cosmo, Susan Vidler, Shirley Henderson, Irvine Welsh, Keith Allen, Kevin Allen, John Hodge, Stuart McQuarrie

citácia:
Další snímek tvůrčího tria, skládajícího se z režiséra Dannyho Boylea, scénáristy Johna Hodge a producenta Andrewa MacDonalda, si získal ještě větší celosvětovou popularitu než předchozí Mělký hrob. Ve vyprávění hlavního "hrdiny", asociálního mladíka Rentona, se odkrývá bizarní svět revolty proti současné konzumní společnosti. Renton a jeho skotští přátelé jsou totiž narkomané, jejichž jedinou starostí je sehnat další dávku. Jenže "skutečný život" smutné protagonisty "semele" a změní. Někteří nepřežijí, z jiných - jako například právě z Rentona - se stanou "normální" lidé. Epizodické vyprávění vytváří zvláštní mozaiku, z níž se velmi působivě vynořuje pochmurný obraz jedné "ztracené" generace. Snímek těží z tradic britského civilismu a dokumetárních filmů se sociální tématikou, ale zároveň je radikálně inovuje pomocí surrealistických hříček, černého humoru, dynamické kamery, střihu a charakterizace hlavních postav. Režisér Boyle svým pozorováním světa z nevšedního (a generačně vypjatého) úhlu opět provokuje měšťáckou společnost. Svým filmem jako hozenou soubojovou rukavicí políčkuje standardní středostavovskou morálku a tradiční hodnoty. Zároveň si postupně získává u nejmladšího publika přívlastek kultovního režiséra (důležitou roli v tomto procesu hraje hudební složka filmu, obsazená právě kultovními jmény anglosaské scény 80. a 90. let)




FastShare.cz: Milióny súborov na stiahnutie zadarmo alebo neobmedzenou rýchlosťou 140 GB za € 4!





Stiahnut subor : Link na stiahnutie sa zobrazi az po zaregistrovani a prihlaseni.Zaregistrujte sa pre plnohodnotny pristup a vyuzivanie fora.






FastShare.cz: Milióny súborov na stiahnutie zadarmo alebo neobmedzenou rýchlosťou 140 GB za € 4!





Stiahnut subor : Link na stiahnutie sa zobrazi az po zaregistrovani a prihlaseni.Zaregistrujte sa pre plnohodnotny pristup a vyuzivanie fora.

Návrat hore
Zobrazit informácie o autorovi Odoslať súkromnú správu

fero182
Power User
Power User


User is Offline

Založený: 17 január 2009

Príspevky: 474

Poďakovaní : 23 v 18 príspevkoch


Reputácia :

159.8

Hlasovalo : 6

PríspevokZaslal: St apríl 24, 2013 8:26 am    Predmet: Trainspotting (1996) Odpovedať s citátom

Trainspotting (1996)



CSFD :


FastShare.cz: Milióny súborov na stiahnutie zadarmo alebo neobmedzenou rýchlosťou 140 GB za € 4!





Stiahnut subor : Link na stiahnutie sa zobrazi az po zaregistrovani a prihlaseni.Zaregistrujte sa pre plnohodnotny pristup a vyuzivanie fora.



Info o súbore :
Veľkosť : 699.83 MB
Typ súboru : AVI
Audio: 2 channels | MP3 128 Kbps Variable
Video: 528×288px – 16 | DivX 4 (AVI) | 949 Kbps | 25.000 fps

Sťahuj :


FastShare.cz: Milióny súborov na stiahnutie zadarmo alebo neobmedzenou rýchlosťou 140 GB za € 4!





Stiahnut subor : Link na stiahnutie sa zobrazi az po zaregistrovani a prihlaseni.Zaregistrujte sa pre plnohodnotny pristup a vyuzivanie fora.


_________________
Matematika je veda o najzložitejších abstrakciách, k akým môže ľudský um dospieť.
Návrat hore
Zobrazit informácie o autorovi Odoslať súkromnú správu

miroslat
Prispievateľ
Prispievateľ


User is Offline

Založený: 16 apríl 2009

Príspevky: 187

Poďakovaní : 57 v 42 príspevkoch


Reputácia :

49.1

Hlasovalo : 3

PríspevokZaslal: Ne august 11, 2013 9:09 am    Predmet: trnspttng Odpovedať s citátom


Trainspotting / Trainspotting / 1996 / DVDRip.cz.6k
Drama / Krimi / Komedie
Velká Británie, 1996, 94 min

Další snímek tvůrčího tria, skládajícího se z režiséra Dannyho Boylea, scénáristy Johna Hodge a producenta Andrewa MacDonalda, si získal ještě větší celosvětovou popularitu než předchozí Mělký hrob. Ve vyprávění hlavního "hrdiny", asociálního mladíka Rentona, se odkrývá bizarní svět revolty proti současné konzumní společnosti. Renton a jeho skotští přátelé jsou totiž narkomané, jejichž jedinou starostí je sehnat další dávku. Jenže "skutečný život" smutné protagonisty "semele" a změní. Někteří nepřežijí, z jiných - jako například právě z Rentona - se stanou "normální" lidé. Epizodické vyprávění vytváří zvláštní mozaiku, z níž se velmi působivě vynořuje pochmurný obraz jedné "ztracené" generace. Snímek těží z tradic britského civilismu a dokumetárních filmů se sociální tématikou, ale zároveň je radikálně inovuje pomocí surrealistických hříček, černého humoru, dynamické kamery, střihu a charakterizace hlavních postav. Režisér Boyle svým pozorováním světa z nevšedního (a generačně vypjatého) úhlu opět provokuje měšťáckou společnost. Svým filmem jako hozenou soubojovou rukavicí políčkuje standardní středostavovskou morálku a tradiční hodnoty. Zároveň si postupně získává u nejmladšího publika přívlastek kultovního režiséra (důležitou roli v tomto procesu hraje hudební složka filmu, obsazená právě kultovními jmény anglosaské scény 80. a 90. let).



http://www.csfd.cz/film/901-trainspotting/



http://www.imdb.com/title/tt0117951/






Trainspotting.Trainspotting.DVDRip.CZ.6k
Veľkosť súboru : 1,26 Gb.

[Film]
Platnosť : Ano [AVI]
Trvanie : 01:30:16
Kompletný film : Ano
[Video]
Rozlíšenie : 640x384
Kodek : Intel ITU H.264
FPS : 25,00
BitRate : 1868 Kbps
Quality Factor : 0,31 b/px
[Audio]
Kodek : ATSC/A-52 Dolby AC3
Počet kanálov : 6
Sample Rate : 48000 Hz
BitRate : 128 Kbps








FastShare.cz: Milióny súborov na stiahnutie zadarmo alebo neobmedzenou rýchlosťou 140 GB za € 4!





Stiahnut subor : Link na stiahnutie sa zobrazi az po zaregistrovani a prihlaseni.Zaregistrujte sa pre plnohodnotny pristup a vyuzivanie fora.



Stlačte "+" alebo „ĎAKUJEM“ - to poteší a inšpiruje Very Happy
Návrat hore
Zobrazit informácie o autorovi Odoslať súkromnú správu
Za tento príspevok ti poďakovali : kolik84, ravanis

ENTEROO
Prispievateľ
Prispievateľ


User is Offline

Založený: 06 január 2009

Príspevky: 195

Poďakovaní : 62 v 34 príspevkoch


Reputácia :

54

Hlasovalo : 6

PríspevokZaslal: Po november 11, 2013 3:17 pm    Predmet: Trainspotting (1996) Odpovedať s citátom

Trainspotting (1996)


<- INFO ->


citácia:
http://www.csfd.cz/film/901-trainspotting/galerie/



citácia:
Další snímek tvůrčího tria, skládajícího se z režiséra Dannyho Boylea, scénáristy Johna Hodge a producenta Andrewa MacDonalda, si získal ještě větší celosvětovou popularitu než předchozí Mělký hrob. Ve vyprávění hlavního "hrdiny", asociálního mladíka Rentona, se odkrývá bizarní svět revolty proti současné konzumní společnosti. Renton a jeho skotští přátelé jsou totiž narkomané, jejichž jedinou starostí je sehnat další dávku. Jenže "skutečný život" smutné protagonisty "semele" a změní. Někteří nepřežijí, z jiných - jako například právě z Rentona - se stanou "normální" lidé. Epizodické vyprávění vytváří zvláštní mozaiku, z níž se velmi působivě vynořuje pochmurný obraz jedné "ztracené" generace. Snímek těží z tradic britského civilismu a dokumetárních filmů se sociální tématikou, ale zároveň je radikálně inovuje pomocí surrealistických hříček, černého humoru, dynamické kamery, střihu a charakterizace hlavních postav. Režisér Boyle svým pozorováním světa z nevšedního (a generačně vypjatého) úhlu opět provokuje měšťáckou společnost. Svým filmem jako hozenou soubojovou rukavicí políčkuje standardní středostavovskou morálku a tradiční hodnoty. Zároveň si postupně získává u nejmladšího publika přívlastek kultovního režiséra (důležitou roli v tomto procesu hraje hudební složka filmu, obsazená právě kultovními jmény anglosaské scény 80. a 90. let).




CSFD: 88%



FastShare.cz: Milióny súborov na stiahnutie zadarmo alebo neobmedzenou rýchlosťou 140 GB za € 4!





Stiahnut subor : Link na stiahnutie sa zobrazi az po zaregistrovani a prihlaseni.Zaregistrujte sa pre plnohodnotny pristup a vyuzivanie fora.




Format : AVI
Format/Info : Audio Video Interleave
File size : 850 MiB
Duration : 1h 30mn
Overall bit rate : 1 316 Kbps
Writing application : VirtualDubMod 1.5.4.1 (build 2178/release)
Writing library : VirtualDubMod build 2178/release

Video
ID : 0
Format : MPEG-4 Visual
Format profile : Advanced Simple@L5
Format settings, BVOP : Yes
Format settings, QPel : No
Format settings, GMC : No warppoints
Format settings, Matrix : Custom
Codec ID : XVID
Codec ID/Hint : XviD
Duration : 1h 30mn
Bit rate : 1 188 Kbps
Width : 672 pixels
Height : 384 pixels

Display aspect ratio : 16:9
Frame rate : 25.000 fps
Color space : YUV
Chroma subsampling : 4:2:0
Bit depth : 8 bits
Scan type : Progressive
Bits/(Pixel*Frame) : 0.184
Stream size : 767 MiB (90%)
Writing library : XviD 1.1.2 (UTC 2006-11-01)

Audio
ID : 1
Format : MPEG Audio
Format version : Version 1
Format profile : Layer 3
Mode : Joint stereo
Mode extension : MS Stereo
Codec ID : 55
Codec ID/Hint : MP3
Duration : 1h 29mn
Bit rate mode : Variable
Bit rate : 117 Kbps
Nominal bit rate : 128 Kbps
Channel(s) : 2 channels
Sampling rate : 48.0 KHz
Stream size : 74.8 MiB (9%)
Alignment : Aligned on interleaves
Interleave, duration : 24 ms (0.60 video frame)
Interleave, preload duration : 158 ms
Writing library : LAME3.97
Encoding settings : -m j -V 4 -q 2 -lowpass 17 --abr 128


<- DOWNLOAD ->



<- HELLSHARE ->



FastShare.cz: Milióny súborov na stiahnutie zadarmo alebo neobmedzenou rýchlosťou 140 GB za € 4!





Stiahnut subor : Link na stiahnutie sa zobrazi az po zaregistrovani a prihlaseni.Zaregistrujte sa pre plnohodnotny pristup a vyuzivanie fora.




FastShare.cz: Milióny súborov na stiahnutie zadarmo alebo neobmedzenou rýchlosťou 140 GB za € 4!





Stiahnut subor : Link na stiahnutie sa zobrazi az po zaregistrovani a prihlaseni.Zaregistrujte sa pre plnohodnotny pristup a vyuzivanie fora.



-------------------- Ďakujem poteší :-) ------------------
_________________
ĎAKUJEM VŠETKÝM ZA +REPUTÁCIU/ĎAKUJEM :-)

Návrat hore
Zobrazit informácie o autorovi Odoslať súkromnú správu
Zobraziť príspevky z predchádzajúcich:   
Pridať novú tému   Zaslať odpoveď    Obsah fóra www.ourphorum.com -> Movie - SK/CZ Filmy ´´ Časy uvádzané v GMT + 1 hodina
Strana 1 z 1

 
Prejdi na:  
Nemôžete pridávať nové témy do tohto fóra.
Nemôžete odpovedať na témy v tomto fóre.
Nemôžete upravovať svoje príspevky v tomto fóre.
Nemôžete mazať svoje príspevky v tomto fóre.
Nemôžete hlasovať v tomto fóre.