//


Trainspotting (1996)

Dabované zahraničné filmy, slovenská a česká produkcia
Pedro696
Prispievateľ
Prispievateľ
 
Príspevky: 59
Registrovaný: Str Sep 02, 2009 5:40 pm
Has thanked: 3 times
Been thanked: 13 times

Trainspotting (1996)

Poslaťod Pedro696 » Pon Feb 15, 2010 7:28 pm

Trainspotting (1996) – CZ dabing


Tento film som dlho nevedel najst na ziadnom fore a teraz ked ho konecne mam tak ho Vam davam, fakt asi moj najlepsi film vobec, vrelo odporucam :clap:

http://www.csfd.cz/film/901-trainspotting/ // 89% - 74. najlepší film na CSFD
http://www.imdb.com/title/tt0117951/ // 8,2 – 154. najlepší film na IMDB

Obrázok

kvalita videa:
Obrázok

tu je par mojich screenov:
Obrázok
Obrázok
Obrázok

---------- D – O – W – N – L – O – A – D ----------

-> Spolu: 699 MB
-> linky su kombinovatelne

-> HOTFILE.com
Odkaz na stiahnutie:
Pre zobrazenie odkazov sa musíte alebo


-> Heslo: bez hesla

-> poprosim nereuploadovat !!!, hotfile je v poho na free stahovanie a ma velmi lacne premium ucty tak tahajte

Obrázok užívateľa
KiDMAN
Prispievateľ
Prispievateľ
 
Príspevky: 121
Registrovaný: Uto Jún 17, 2008 7:37 pm
Bydlisko: Warez downtown
Has thanked: 1 time
Been thanked: 22 times

Poslaťod KiDMAN » Pon Apr 05, 2010 7:05 pm

Trainspotting / Trainspotting (1996) CZ
Obrázok

Obrázok
Odkaz na stiahnutie:
Pre zobrazenie odkazov sa musíte alebo


Obrázok
Odkaz na stiahnutie:
Pre zobrazenie odkazov sa musíte alebo


Obrázok
Odkaz na stiahnutie:
Pre zobrazenie odkazov sa musíte alebo


Obrázok
Odkaz na stiahnutie:
Pre zobrazenie odkazov sa musíte alebo
Poděkovat je slušnost...
Obrázok
Moje linky jsou volně šiřitelné, ale pište k tomu název uploadera - KiDMAN

861016
Excellent User
Excellent User
 
Príspevky: 887
Registrovaný: Uto Apr 13, 2010 4:37 pm
Has thanked: 0 time
Been thanked: 107 times

Trainspotting (1996)

Poslaťod 861016 » Štv Apr 15, 2010 5:08 am

Obrázok
Odkaz na stiahnutie:
Pre zobrazenie odkazov sa musíte alebo


Obrázok
Odkaz na stiahnutie:
Pre zobrazenie odkazov sa musíte alebo


Obrázok
Odkaz na stiahnutie:
Pre zobrazenie odkazov sa musíte alebo



Další snímek tvůrčího tria, skládajícího se z režiséra Dannyho Boylea, scénáristy Johna Hodge a producenta Andrewa MacDonalda, si získal ještě větší celosvětovou popularitu než předchozí Mělký hrob. Ve vyprávění hlavního "hrdiny", asociálního mladíka Rentona, se odkrývá bizarní svět revolty proti současné konzumní společnosti. Renton a jeho skotští přátelé jsou totiž narkomané, jejichž jedinou starostí je sehnat další dávku. Jenže "skutečný život" smutné protagonisty "semele" a změní. Někteří nepřežijí, z jiných - jako například právě z Rentona - se stanou "normální" lidé. Epizodické vyprávění vytváří zvláštní mozaiku, z níž se velmi působivě vynořuje pochmurný obraz jedné "ztracené" generace. Snímek těží z tradic britského civilismu a dokumetárních filmů se sociální tématikou, ale zároveň je radikálně inovuje pomocí surrealistických hříček, černého humoru, dynamické kamery, střihu a charakterizace hlavních postav. Režisér Boyle svým pozorováním světa z nevšedního (a generačně vypjatého) úhlu opět provokuje měšťáckou společnost. Svým filmem jako hozenou soubojovou rukavicí políčkuje standardní středostavovskou morálku a tradiční hodnoty. Zároveň si postupně získává u nejmladšího publika přívlastek kultovního režiséra (důležitou roli v tomto procesu hraje hudební složka filmu, obsazená právě kultovními jmény anglosaské scény 80. a 90. let).


Obrázok
Obrázok

Obrázok užívateľa
Technik68
Power User
Power User
 
Príspevky: 559
Registrovaný: Pia Okt 31, 2008 3:19 pm
Has thanked: 4 times
Been thanked: 451 times

Poslaťod Technik68 » Štv Apr 15, 2010 9:59 am

Trainspotting (1996) (CZ)

Obrázok


CSFD:

Odkaz na stiahnutie:
Pre zobrazenie odkazov sa musíte alebo


INFO:

Drama
Velká Británie, 1996

Režie: Danny Boyle
Hrají: Ewan McGregor, Ewen Bremner, Jonny Lee Miller, Kevin McKidd, Robert Carlyle, Kelly Macdonald, Peter Mullan, James Cosmo, Susan Vidler, Shirley Henderson, Irvine Welsh, Keith Allen, Kevin Allen, John Hodge


OBSAH :

Další snímek tvůrčího tria, skládajícího se z režiséra Dannyho Boylea, scénáristy Johna Hodge a producenta Andrewa MacDonalda, si získal ještě větší celosvětovou popularitu než předchozí Mělký hrob. Ve vyprávění hlavního "hrdiny", asociálního mladíka Rentona, se odkrývá bizarní svět revolty proti současné konzumní společnosti. Renton a jeho skotští přátelé jsou totiž narkomané, jejichž jedinou starostí je sehnat další dávku. Jenže "skutečný život" smutné protagonisty "semele" a změní. Někteří nepřežijí, z jiných - jako například právě z Rentona - se stanou "normální" lidé. Epizodické vyprávění vytváří ...


KVALITA :

AVI Info:
File size : 850 MiB
Duration : 1h 30mn
Overall bit rate : 1 316 Kbps

Video
Format : MPEG-4 Visual
Codec ID : XVID
Codec ID/Hint : XviD
Duration : 1h 30mn
Bit rate : 1 188 Kbps
Width : 672 pixels
Height : 384 pixels
Frame rate : 25.000 fps
Resolution : 24 bits
Stream size : 767 MiB (90%)

Audio
Format : MPEG Audio
Format version : Version 1
Format profile : Layer 3
Codec ID : 55
Codec ID/Hint : MP3
Duration : 1h 29mn
Bit rate : 117 Kbps
Minimum bit rate : 128 Kbps
Channel(s) : 2 channels
Sampling rate : 48.0 KHz
Resolution : 16 bits


DOWNLOAD :

Odkaz na stiahnutie:
Pre zobrazenie odkazov sa musíte alebo
--

"Ďakujem" poteší, alebo pošli "(+)" !!!
--
Upozornenie!Táto správa neslúži ako návod pre získavanie nelegálnych kopii a ani to nijako nepodporuje!!!

slon335
Excellent User
Excellent User
 
Príspevky: 872
Registrovaný: Pon Mar 30, 2009 11:38 pm
Has thanked: 0 time
Been thanked: 176 times

Poslaťod slon335 » Pia Sep 03, 2010 3:05 pm

Trainspotting (Trainspotting) 1996
Trainspotting.1996.480p.BRRip.Xvid.CZ.jDM

Obrázok

Přeslavný, kultovní, vtipný i tragický zároveň a místy taky lehce nechutný film o drogách z dílny Dannyho Boyla. Jeden vůbec z nejpřesvědčivějších v daném žánru.
Líčí bez obalu všední životy edinburgských feťáků a skrývá v sobě nejen nezbytné poselství, ale především poučení pro další drogychtivé generace. Ústřední postavou je (stejně jako v taktéž slavné knize Irvina Welshe, jejíž adaptací snímek je) asociální mladík jménem Mark Renton, jenž nechodí do školy, ba ani do práce - povětšinu času se stará jen o to své. Totiž denní dávku heroinu. Obdobný osud mají také jeho ,,takzvaní kámoši'' - Spud (tak trochu roztěkaný, ale upřímný ňouma, co má zálibu v drogách jako každý jiný), Sickboy (poměrně sofistikovaný fanda Jamese Bonda - s duší obchodníka) a konečně výjimka potvrzující pravidlo - Mr. Francis Babgie (řezník, jehož jedinou zálibou je řezat lidi, nikoliv drogy). Film v podstatě líčí jediné - cestu Marka Renona z pekla feťáků zpátky nahoru, mezi tzv. ,,normální'' lid. Jeho ,,cesta ven'' je doprovázena různými bizarními historkami a glosami, aby nakonec došel k nevyhnutelnému zjištění, že jestli chce přestat brát, najít si práci a být ,,stejný jako vy'', musí se nutně zbavit svých tzv. kámošů a zkusit štěstí jinde a jinak... Otázka ovšem zní: Je tohle ten život, co si chce vybrat, aby ho učinil šťastným a spokojeným člověkem? Nebo je to jiná, společensky přijatelnější cesta do pekel?


CSFD - FDB
Odkaz na stiahnutie:
Pre zobrazenie odkazov sa musíte alebo


SCREEN + INFO
Obrázok

DOWNLOAD - HOTFILE
Odkaz na stiahnutie:
Pre zobrazenie odkazov sa musíte alebo


DOWNLOAD - QUICKSHARE
Odkaz na stiahnutie:
Pre zobrazenie odkazov sa musíte alebo


DOWNLOAD - SHARERAPID
Odkaz na stiahnutie:
Pre zobrazenie odkazov sa musíte alebo


LINKY LZE KOMBINOVAT
BEZ HESLA

Annicka
Power User
Power User
 
Príspevky: 430
Registrovaný: Uto Máj 05, 2009 7:39 pm
Has thanked: 0 time
Been thanked: 51 times

Poslaťod Annicka » Str Mar 09, 2011 11:48 am

Trainspotting (1996)

Obrázok

Csfd:
Odkaz na stiahnutie:
Pre zobrazenie odkazov sa musíte alebo

: aktuálně 88%

Další snímek tvůrčího tria, skládajícího se z režiséra Dannyho Boylea, scénáristy Johna Hodge a producenta Andrewa MacDonalda, si získal ještě větší celosvětovou popularitu než předchozí Mělký hrob. Ve vyprávění hlavního "hrdiny", asociálního mladíka Rentona, se odkrývá bizarní svět revolty proti současné konzumní společnosti. Renton a jeho skotští přátelé jsou totiž narkomané, jejichž jedinou starostí je sehnat další dávku. Jenže "skutečný život" smutné protagonisty "semele" a změní. Někteří nepřežijí, z jiných - jako například právě z Rentona - se stanou "normální" lidé. Epizodické vyprávění vytváří zvláštní mozaiku, z níž se velmi působivě vynořuje pochmurný obraz jedné "ztracené" generace. Snímek těží z tradic britského civilismu a dokumetárních filmů se sociální tématikou, ale zároveň je radikálně inovuje pomocí surrealistických hříček, černého humoru, dynamické kamery, střihu a charakterizace hlavních postav. Režisér Boyle svým pozorováním světa z nevšedního (a generačně vypjatého) úhlu opět provokuje měšťáckou společnost. Svým filmem jako hozenou soubojovou rukavicí políčkuje standardní středostavovskou morálku a tradiční hodnoty. Zároveň si postupně získává u nejmladšího publika přívlastek kultovního režiséra (důležitou roli v tomto procesu hraje hudební složka filmu, obsazená právě kultovními jmény anglosaské scény 80. a 90. let).

Jazyk: CZ
Typ souboru: .avi
Bitrate: 1084 Kbps
Duration: 5400.0 s
Size: 699 MB
Overhead: 0,6%

Video: MPEG-4 Visual
Bitrate: 949 Kbps
Resolution: 528x288
Frame Rate: 25.00 FPS

Obrázok

Odkaz na stiahnutie:
Pre zobrazenie odkazov sa musíte alebo


Bez hesla!

Obrázok užívateľa
frontman242
ourphorum MAFIA
ourphorum MAFIA
 
Príspevky: 4264
Registrovaný: Str Júl 16, 2008 4:31 am
Has thanked: 0 time
Been thanked: 274 times

Poslaťod frontman242 » Pia Aug 05, 2011 5:52 pm

Trainspotting (1996)

Obrázok

Odkaz na stiahnutie:
Pre zobrazenie odkazov sa musíte alebo


Další snímek tvůrčího tria, skládajícího se z režiséra Dannyho Boylea, scénáristy Johna Hodge a producenta Andrewa MacDonalda, si získal ještě větší celosvětovou popularitu než předchozí Mělký hrob. Ve vyprávění hlavního "hrdiny", asociálního mladíka Rentona, se odkrývá bizarní svět revolty proti současné konzumní společnosti. Renton a jeho skotští přátelé jsou totiž narkomané, jejichž jedinou starostí je sehnat další dávku. Jenže "skutečný život" smutné protagonisty "semele" a změní. Někteří nepřežijí, z jiných - jako například právě z Rentona - se stanou "normální" lidé. Epizodické vyprávění vytváří zvláštní mozaiku, z níž se velmi působivě vynořuje pochmurný obraz jedné "ztracené" generace. Snímek těží z tradic britského civilismu a dokumetárních filmů se sociální tématikou, ale zároveň je radikálně inovuje pomocí surrealistických hříček, černého humoru, dynamické kamery, střihu a charakterizace hlavních postav. Režisér Boyle svým pozorováním světa z nevšedního (a generačně vypjatého) úhlu opět provokuje měšťáckou společnost. Svým filmem jako hozenou soubojovou rukavicí políčkuje standardní středostavovskou morálku a tradiční hodnoty. Zároveň si postupně získává u nejmladšího publika přívlastek kultovního režiséra (důležitou roli v tomto procesu hraje hudební složka filmu, obsazená právě kultovními jmény anglosaské scény 80. a 90. let).

Drama / Krimi
Velká Británie, 1996
Režie: Danny Boyle
Hrají: Ewan McGregor, Ewen Bremner, Jonny Lee Miller, Kevin McKidd, Robert Carlyle, Kelly Macdonald, Peter Mullan, James Cosmo, Susan Vidler, Shirley Henderson, Irvine Welsh, Keith Allen, Kevin Allen, John Hodge

AVI - 01:30:16 - 1750MB - DVD Rip - Cz Dabing
Video: XVID 720x416 25.00fps [Stream 00]
Audio: Dolby AC3 48000Hz 6ch 448Kbps [Stream 01]

Obrázok
Odkaz na stiahnutie:
Pre zobrazenie odkazov sa musíte alebo

Obrázok
Odkaz na stiahnutie:
Pre zobrazenie odkazov sa musíte alebo

Obrázok
Odkaz na stiahnutie:
Pre zobrazenie odkazov sa musíte alebo

Obrázok
Odkaz na stiahnutie:
Pre zobrazenie odkazov sa musíte alebo

Obrázok
Odkaz na stiahnutie:
Pre zobrazenie odkazov sa musíte alebo
Ponúkam výhodne kredit na Share-rapid, bližšie info cez SS/PM

krucko
Power User
Power User
 
Príspevky: 747
Registrovaný: Sob Dec 20, 2008 5:43 pm
Has thanked: 6 times
Been thanked: 34 times

Poslaťod krucko » Pon Aug 08, 2011 8:19 pm

Trainspotting 1996 Dvd rip

Obrázok


CSFD http://www.csfd.cz/film/901-trainspotting/

INFO

Odkaz na stiahnutie:
Pre zobrazenie odkazov sa musíte alebo


Download

Odkaz na stiahnutie:
Pre zobrazenie odkazov sa musíte alebo

Obrázok užívateľa
Technik68
Power User
Power User
 
Príspevky: 559
Registrovaný: Pia Okt 31, 2008 3:19 pm
Has thanked: 4 times
Been thanked: 451 times

Poslaťod Technik68 » Str Dec 14, 2011 5:38 pm

Obrázok


Trainspotting (1996)


Obrázok


Obrázok


Obrázok

CSFD :

Odkaz na stiahnutie:
Pre zobrazenie odkazov sa musíte alebo



Drama / Krimi
Velká Británie, 1996

Režie: Danny Boyle
Hrají: Ewan McGregor, Ewen Bremner, Jonny Lee Miller, Kevin McKidd, Robert Carlyle, Kelly Macdonald, Peter
Mullan, James Cosmo, Susan Vidler, Shirley Henderson, Irvine Welsh, Keith Allen, Kevin Allen, John Hodge

Další snímek tvůrčího tria, skládajícího se z režiséra Dannyho Boylea, scénáristy Johna Hodge a producenta
Andrewa MacDonalda, si získal ještě větší celosvětovou popularitu než předchozí Mělký hrob. Ve vyprávění
hlavního "hrdiny", asociálního mladíka Rentona, se odkrývá bizarní svět revolty proti současné konzumní
společnosti. Renton a jeho skotští přátelé jsou totiž narkomané, jejichž jedinou starostí je sehnat další
dávku. Jenže "skutečný život" smutné protagonisty "semele" a změní. Někteří nepřežijí, z jiných - jako
například právě z Rentona - se stanou "normální" lidé. Epizodické vyprávění vytváří zvláštní mozaiku, z níž
se velmi působivě vynořuje pochmurný obraz jedné "ztracené" generace. Snímek těží z tradic britského
civilismu a dokumetárních filmů se sociální tématikou, ale zároveň je radikálně inovuje pomocí surrealisti-
ckých hříček, černého humoru, dynamické kamery, střihu a charakterizace hlavních postav. Režisér Boyle svým
pozorováním světa z nevšedního (a generačně vypjatého) úhlu opět provokuje měšťáckou společnost. Svým filmem
jako hozenou soubojovou rukavicí políčkuje standardní středostavovskou morálku a tradiční hodnoty. Zároveň
si postupně získává u nejmladšího publika přívlastek kultovního režiséra (důležitou roli v tomto procesu
hraje hudební složka filmu, obsazená právě kultovními jmény anglosaské scény 80. a 90. let).



Obrázok

Typ súboru:--------------------- AVI (DVD Rip)
Veľkosť súboru:----------------- 707 MB (742 295 320 bajtov)
Šírka:-------------------------- 720 pixelov
Výška:-------------------------- 400 pixelov
Trvanie:------------------------ 01:30:16
Bit.rýchlosť:------------------- 128kbps
Formát zvuku:------------------- Lame MP3
Jazyk:-------------------------- CZ
Frekvencia snímok:-------------- 23 snímky/s
Prenos.rýchlosť:---------------- 1070kbps
Veľkosť ukážky videa:----------- 12 bitov
Kompresia videa:---------------- XVID



Obrázok


Obrázok

Odkaz na stiahnutie:
Pre zobrazenie odkazov sa musíte alebo


Obrázok

Odkaz na stiahnutie:
Pre zobrazenie odkazov sa musíte alebo


Obrázok

Odkaz na stiahnutie:
Pre zobrazenie odkazov sa musíte alebo


Obrázok

Odkaz na stiahnutie:
Pre zobrazenie odkazov sa musíte alebo


Obrázok

Odkaz na stiahnutie:
Pre zobrazenie odkazov sa musíte alebo




Obrázok



Obrázok

Všetky uploady sú bez hesla.
Linky sú kombinovateľné, ak je ich rovnaký počet a veľkosť.
Všetky moje uploady sú balené vo WinRARe, rozbaľujte ich iba v programe WinRAR.
Každý archív obsahuje 3%-ný záznam pre opravu dát.
--

"Ďakujem" poteší, alebo pošli "(+)" !!!
--
Upozornenie!Táto správa neslúži ako návod pre získavanie nelegálnych kopii a ani to nijako nepodporuje!!!

Obrázok užívateľa
fero182
Power User
Power User
 
Príspevky: 474
Registrovaný: Sob Jan 17, 2009 6:50 pm
Has thanked: 2 times
Been thanked: 22 times

Trainspotting (1996)

Poslaťod fero182 » Str Jan 30, 2013 6:24 pm

Trainspotting (1996)

CSFD :
Odkaz na stiahnutie:
Pre zobrazenie odkazov sa musíte alebo


Info o súbore :
Veľkosť : 699.83 MB
Typ súboru : AVI
Audio: 2 channels | MP3 128 Kbps Variable
Video: 528×288px – 16 | DivX 4 (AVI) | 949 Kbps | 25.000 fps

Sťahuj :
Odkaz na stiahnutie:
Pre zobrazenie odkazov sa musíte alebo
Matematika je veda o najzložitejších abstrakciách, k akým môže ľudský um dospieť.

Obrázok užívateľa
juice07
Power User
Power User
 
Príspevky: 745
Registrovaný: Pon Feb 04, 2013 11:11 am
Has thanked: 1 time
Been thanked: 15 times

Poslaťod juice07 » Štv Feb 14, 2013 4:42 pm

Trainspotting (1996)

Obrázok

Obrázok

Obrázok
Odkaz na stiahnutie:
Pre zobrazenie odkazov sa musíte alebo


Obrázok

CSFD: 88%
85. nejlepší film
37. nejoblíbenější film


Drama / Krimi
Velká Británie, 1996, 94 min

Režie: Danny Boyle
Předloha: Irvine Welsh (kniha)
Scénář: John Hodge
Hrají: Ewan McGregor, Ewen Bremner, Jonny Lee Miller, Kevin McKidd, Robert Carlyle, Kelly Macdonald, Peter Mullan, James Cosmo, Susan Vidler, Shirley Henderson, Irvine Welsh, Keith Allen, Kevin Allen, John Hodge, Stuart McQuarrie

Další snímek tvůrčího tria, skládajícího se z režiséra Dannyho Boylea, scénáristy Johna Hodge a producenta Andrewa MacDonalda, si získal ještě větší celosvětovou popularitu než předchozí Mělký hrob. Ve vyprávění hlavního "hrdiny", asociálního mladíka Rentona, se odkrývá bizarní svět revolty proti současné konzumní společnosti. Renton a jeho skotští přátelé jsou totiž narkomané, jejichž jedinou starostí je sehnat další dávku. Jenže "skutečný život" smutné protagonisty "semele" a změní. Někteří nepřežijí, z jiných - jako například právě z Rentona - se stanou "normální" lidé. Epizodické vyprávění vytváří zvláštní mozaiku, z níž se velmi působivě vynořuje pochmurný obraz jedné "ztracené" generace. Snímek těží z tradic britského civilismu a dokumetárních filmů se sociální tématikou, ale zároveň je radikálně inovuje pomocí surrealistických hříček, černého humoru, dynamické kamery, střihu a charakterizace hlavních postav. Režisér Boyle svým pozorováním světa z nevšedního (a generačně vypjatého) úhlu opět provokuje měšťáckou společnost. Svým filmem jako hozenou soubojovou rukavicí políčkuje standardní středostavovskou morálku a tradiční hodnoty. Zároveň si postupně získává u nejmladšího publika přívlastek kultovního režiséra (důležitou roli v tomto procesu hraje hudební složka filmu, obsazená právě kultovními jmény anglosaské scény 80. a 90. let)


Odkaz na stiahnutie:
Pre zobrazenie odkazov sa musíte alebo


Obrázok
Odkaz na stiahnutie:
Pre zobrazenie odkazov sa musíte alebo

Obrázok užívateľa
fero182
Power User
Power User
 
Príspevky: 474
Registrovaný: Sob Jan 17, 2009 6:50 pm
Has thanked: 2 times
Been thanked: 22 times

Trainspotting (1996)

Poslaťod fero182 » Str Apr 24, 2013 9:26 am

Trainspotting (1996)

Obrázok

CSFD :
Odkaz na stiahnutie:
Pre zobrazenie odkazov sa musíte alebo


Info o súbore :
Veľkosť : 699.83 MB
Typ súboru : AVI
Audio: 2 channels | MP3 128 Kbps Variable
Video: 528×288px – 16 | DivX 4 (AVI) | 949 Kbps | 25.000 fps

Sťahuj :
Odkaz na stiahnutie:
Pre zobrazenie odkazov sa musíte alebo
Matematika je veda o najzložitejších abstrakciách, k akým môže ľudský um dospieť.

Obrázok užívateľa
miroslat
Top Prispievateľ
Top Prispievateľ
 
Príspevky: 233
Registrovaný: Štv Apr 16, 2009 8:01 pm
Has thanked: 5 times
Been thanked: 83 times

trnspttng

Poslaťod miroslat » Ned Aug 11, 2013 10:09 am

Obrázok
Trainspotting / Trainspotting / 1996 / DVDRip.cz.6k
Drama / Krimi / Komedie
Velká Británie, 1996, 94 min

Další snímek tvůrčího tria, skládajícího se z režiséra Dannyho Boylea, scénáristy Johna Hodge a producenta Andrewa MacDonalda, si získal ještě větší celosvětovou popularitu než předchozí Mělký hrob. Ve vyprávění hlavního "hrdiny", asociálního mladíka Rentona, se odkrývá bizarní svět revolty proti současné konzumní společnosti. Renton a jeho skotští přátelé jsou totiž narkomané, jejichž jedinou starostí je sehnat další dávku. Jenže "skutečný život" smutné protagonisty "semele" a změní. Někteří nepřežijí, z jiných - jako například právě z Rentona - se stanou "normální" lidé. Epizodické vyprávění vytváří zvláštní mozaiku, z níž se velmi působivě vynořuje pochmurný obraz jedné "ztracené" generace. Snímek těží z tradic britského civilismu a dokumetárních filmů se sociální tématikou, ale zároveň je radikálně inovuje pomocí surrealistických hříček, černého humoru, dynamické kamery, střihu a charakterizace hlavních postav. Režisér Boyle svým pozorováním světa z nevšedního (a generačně vypjatého) úhlu opět provokuje měšťáckou společnost. Svým filmem jako hozenou soubojovou rukavicí políčkuje standardní středostavovskou morálku a tradiční hodnoty. Zároveň si postupně získává u nejmladšího publika přívlastek kultovního režiséra (důležitou roli v tomto procesu hraje hudební složka filmu, obsazená právě kultovními jmény anglosaské scény 80. a 90. let).

Obrázok

http://www.csfd.cz/film/901-trainspotting/

Obrázok

http://www.imdb.com/title/tt0117951/

Obrázok
Obrázok

Obrázok

Trainspotting.Trainspotting.DVDRip.CZ.6k
Veľkosť súboru : 1,26 Gb.

[Film]
Platnosť : Ano [AVI]
Trvanie : 01:30:16
Kompletný film : Ano
[Video]
Rozlíšenie : 640x384
Kodek : Intel ITU H.264
FPS : 25,00
BitRate : 1868 Kbps
Quality Factor : 0,31 b/px
[Audio]
Kodek : ATSC/A-52 Dolby AC3
Počet kanálov : 6
Sample Rate : 48000 Hz
BitRate : 128 Kbps

Obrázok
Obrázok

Obrázok
Obrázok
Odkaz na stiahnutie:
Pre zobrazenie odkazov sa musíte alebo


Stlačte "+" alebo „ĎAKUJEM“ - to poteší a inšpiruje :D

Obrázok užívateľa
ENTEROO
Prispievateľ
Prispievateľ
 
Príspevky: 195
Registrovaný: Uto Jan 06, 2009 10:23 pm
Has thanked: 25 times
Been thanked: 62 times

Trainspotting (1996)

Poslaťod ENTEROO » Pon Nov 11, 2013 4:17 pm

Trainspotting (1996)


<- INFO ->


http://www.csfd.cz/film/901-trainspotting/galerie/



Další snímek tvůrčího tria, skládajícího se z režiséra Dannyho Boylea, scénáristy Johna Hodge a producenta Andrewa MacDonalda, si získal ještě větší celosvětovou popularitu než předchozí Mělký hrob. Ve vyprávění hlavního "hrdiny", asociálního mladíka Rentona, se odkrývá bizarní svět revolty proti současné konzumní společnosti. Renton a jeho skotští přátelé jsou totiž narkomané, jejichž jedinou starostí je sehnat další dávku. Jenže "skutečný život" smutné protagonisty "semele" a změní. Někteří nepřežijí, z jiných - jako například právě z Rentona - se stanou "normální" lidé. Epizodické vyprávění vytváří zvláštní mozaiku, z níž se velmi působivě vynořuje pochmurný obraz jedné "ztracené" generace. Snímek těží z tradic britského civilismu a dokumetárních filmů se sociální tématikou, ale zároveň je radikálně inovuje pomocí surrealistických hříček, černého humoru, dynamické kamery, střihu a charakterizace hlavních postav. Režisér Boyle svým pozorováním světa z nevšedního (a generačně vypjatého) úhlu opět provokuje měšťáckou společnost. Svým filmem jako hozenou soubojovou rukavicí políčkuje standardní středostavovskou morálku a tradiční hodnoty. Zároveň si postupně získává u nejmladšího publika přívlastek kultovního režiséra (důležitou roli v tomto procesu hraje hudební složka filmu, obsazená právě kultovními jmény anglosaské scény 80. a 90. let).




CSFD: 88%

Odkaz na stiahnutie:
Pre zobrazenie odkazov sa musíte alebo



Format : AVI
Format/Info : Audio Video Interleave
File size : 850 MiB
Duration : 1h 30mn
Overall bit rate : 1 316 Kbps
Writing application : VirtualDubMod 1.5.4.1 (build 2178/release)
Writing library : VirtualDubMod build 2178/release

Video
ID : 0
Format : MPEG-4 Visual
Format profile : Advanced Simple@L5
Format settings, BVOP : Yes
Format settings, QPel : No
Format settings, GMC : No warppoints
Format settings, Matrix : Custom
Codec ID : XVID
Codec ID/Hint : XviD
Duration : 1h 30mn
Bit rate : 1 188 Kbps
Width : 672 pixels
Height : 384 pixels

Display aspect ratio : 16:9
Frame rate : 25.000 fps
Color space : YUV
Chroma subsampling : 4:2:0
Bit depth : 8 bits
Scan type : Progressive
Bits/(Pixel*Frame) : 0.184
Stream size : 767 MiB (90%)
Writing library : XviD 1.1.2 (UTC 2006-11-01)

Audio
ID : 1
Format : MPEG Audio
Format version : Version 1
Format profile : Layer 3
Mode : Joint stereo
Mode extension : MS Stereo
Codec ID : 55
Codec ID/Hint : MP3
Duration : 1h 29mn
Bit rate mode : Variable
Bit rate : 117 Kbps
Nominal bit rate : 128 Kbps
Channel(s) : 2 channels
Sampling rate : 48.0 KHz
Stream size : 74.8 MiB (9%)
Alignment : Aligned on interleaves
Interleave, duration : 24 ms (0.60 video frame)
Interleave, preload duration : 158 ms
Writing library : LAME3.97
Encoding settings : -m j -V 4 -q 2 -lowpass 17 --abr 128


<- DOWNLOAD ->



<- HELLSHARE ->

Odkaz na stiahnutie:
Pre zobrazenie odkazov sa musíte alebo

Odkaz na stiahnutie:
Pre zobrazenie odkazov sa musíte alebo


-------------------- Ďakujem poteší :-) ------------------
ĎAKUJEM VŠETKÝM ZA +REPUTÁCIU/ĎAKUJEM :-)

Obrázok


Späť na Movie - SK/CZ Filmy ´´

Kto je on-line

Užívatelia prezerajúci fórum: dejan, hoyle.gum, Norman12, NYDJ, skandrej, veres.jan a 1 hosť