Above Majestic (2018)

Dokumentárne filmy, dokumentárne seriály, televízne relácie, športové prenosy...
Luky753
Prispievateľ
Prispievateľ
 
Príspevky: 72
Registrovaný: Ned Nov 13, 2016 3:22 pm
Poďakoval: 0 krát
Poďakovali mi: 6 krát

Above Majestic (2018)

Poslaťod Luky753 » Štv Nov 15, 2018 1:46 am

Obrázok

Above Majestic (2018)


Dokumentární

USA, 2018

Režie: Roger R. Richards
Hrají: dr. David Wilcock

Pozrite sa na pôvod, históriu a sprisahania za "majestátnou 12", tajnú skupinu vojenských a firemných postavičiek, ktorí sú poverení mimozemskou technikou reverzného inžinierstva.

Odkaz na stiahnutie:
Pre zobrazenie odkazov sa musíte alebo


Format : Matroska
Format version : Version 4
File size : 2.11 GiB
Duration : 2 h 13 min
Overall bit rate : 2 264 kb/s

Video
Format : MPEG-4 Visual
Format profile : Advanced Simple@L5
Format settings : BVOP2 / QPel
Format settings, BVOP : 2
Format settings, QPel : Yes
Format settings, GMC : No warppoints
Format settings, Matrix : Default (H.263)
Muxing mode : Packed bitstream
Codec ID : V_MS/VFW/FOURCC / XVID
Codec ID/Hint : XviD
Duration : 2 h 13 min
Bit rate : 2 133 kb/s
Width : 720 pixels
Height : 544 pixels

Display aspect ratio : 16:9
Frame rate mode : Constant
Frame rate : 29.970 (30000/1001) FPS

Audio
Format : MPEG Audio
Format version : Version 1
Format profile : Layer 3
Format settings : Joint stereo / MS Stereo
Codec ID : A_MPEG/L3
Codec ID/Hint : MP3
Duration : 2 h 13 min
Bit rate mode : Constant
Bit rate : 128 kb/s
Channel(s) : 2 channels
Sampling rate : 44.1 kHz
Frame rate : 38.281 FPS (1152 SPF)
Compression mode : Lossy
Stream size : 122 MiB (6%)
Writing library : LAME3.99.5
Default : Yes
Forced : No

Text
ID : 3
Format : UTF-8
Codec ID : S_TEXT/UTF8
Codec ID/Info : UTF-8 Plain Text
Duration : 1 h 14 min
Bit rate : 94 b/s
Count of elements : 1470
Stream size : 51.9 KiB (0%)
Language : Czech

Odkaz na stiahnutie:
Pre zobrazenie odkazov sa musíte alebo

Späť na Movie - Dokumenty

Kto je on-line

Užívatelia prezerajúci fórum: Žiadny registrovaný užívateľ nie je prítomný a 0 hostia