ALF (1986) / CZ

Televízne seriály
vratkodemarko
Excellent User
Excellent User
 
Príspevky: 994
Registrovaný: Pia Feb 17, 2012 3:03 pm
Poďakoval: 3 krát
Poďakovali mi: 114 krát

ALF (1986) / CZ

Poslaťod vratkodemarko » Štv Dec 14, 2017 9:42 pm

Obrázok


Obrázok
Odkaz na stiahnutie:
Pre zobrazenie odkazov sa musíte alebo


Obrázok
D:\prenos\Alf\Alf-01.avi
General
Complete name : D:\prenos\Alf\Alf-01.avi
Format : AVI
Format/Info : Audio Video Interleave
File size : 165 MiB
Duration : 20mn 36s
Overall bit rate : 1 119 Kbps
Writing application : VirtualDubMod 1.5.10.2 (build 2540/release)
Writing library : VirtualDubMod build 2540/release
Video #0
ID : 0
Format : MPEG-4 Visual
Format profile : Advanced Simple@L5
Format settings, BVOP : 1
Format settings, QPel : No
Format settings, GMC : No warppoints
Format settings, Matrix : Default (H.263)
Muxing mode : Packed bitstream
Codec ID : XVID
Codec ID/Hint : XviD
Duration : 20mn 36s
Bit rate : 979 Kbps
Width : 640 pixels
Height : 480 pixels
Display aspect ratio : 4:3
Frame rate : 29.970 fps
Color space : YUV
Chroma subsampling : 4:2:0
Bit depth : 8 bits
Scan type : Progressive
Compression mode : Lossy
Bits/(Pixel*Frame) : 0.106
Stream size : 144 MiB (88%)
Writing library : XviD 1.2.0SMP (UTC 2006-01-08)
Audio #1
ID : 1
Format : MPEG Audio
Format version : Version 1
Format profile : Layer 3
Codec ID : 55
Codec ID/Hint : MP3
Duration : 20mn 36s
Bit rate mode : Constant
Bit rate : 128 Kbps
Channel(s) : 1 channel
Sampling rate : 44.1 KHz
Compression mode : Lossy
Delay relative to video : 2ms
Stream size : 18.9 MiB (11%)
Alignment : Split accross interleaves
Interleave, duration : 33 ms (1.00 video frame)
Interleave, preload duration : 500 ms
Jazyk : CZ Dabing



Obrázok
Obrázok
Odkaz na stiahnutie:
Pre zobrazenie odkazov sa musíte alebo

Späť na Movie - TV seriály

Kto je on-line

Užívatelia prezerajúci fórum: Žiadny registrovaný užívateľ nie je prítomný a 2 hostia