Arrow (2012) / S07 / EN-CZ tit

Televízne seriály
Luky753
Prispievateľ
Prispievateľ
 
Príspevky: 72
Registrovaný: Ned Nov 13, 2016 3:22 pm
Poďakoval: 0 krát
Poďakovali mi: 6 krát

Arrow (2012) / S07 / EN-CZ tit

Poslaťod Luky753 » Sob Nov 10, 2018 8:33 pm

Obrázok

Odkaz na stiahnutie:
Pre zobrazenie odkazov sa musíte alebo


Format : Matroska
Format version : Version 4
File size : 1.02 GiB
Duration : 41 min 39 s
Overall bit rate : 3 505 kb/s

Video
ID : 1
Format : AVC
Format/Info : Advanced Video Codec
Format profile : High@L4.1
Format settings : CABAC / 5 Ref Frames
Format settings, CABAC : Yes
Format settings, ReFrames : 5 frames
Codec ID : V_MPEG4/ISO/AVC
Duration : 41 min 39 s
Bit rate : 3 119 kb/s
Width : 1 280 pixels
Height : 720 pixels
Display aspect ratio : 16:9
Frame rate mode : Constant
Frame rate : 23.976 (24000/1001) FPS

Audio
ID : 2
Format : AC-3
Format/Info : Audio Coding 3
Commercial name : Dolby Digital
Codec ID : A_AC3
Duration : 41 min 59 s
Bit rate mode : Constant
Bit rate : 384 kb/s
Channel(s) : 6 channels
Channel layout : L R C LFE Ls Rs
Sampling rate : 48.0 kHz
Frame rate : 31.250 FPS (1536 SPF)
Bit depth : 16 bits
Compression mode : Lossy
Stream size : 115 MiB (11%)
Service kind : Complete Main
Default : Yes
Forced : No

Text
ID : 3
Format : UTF-8
Codec ID : S_TEXT/UTF8
Codec ID/Info : UTF-8 Plain Text
Duration : 41 min 52 s
Bit rate : 70 b/s
Count of elements : 618
Stream size : 21.7 KiB (0%)
Language/Forced : Czech

S07E01: Inmate

Odkaz na stiahnutie:
Pre zobrazenie odkazov sa musíte alebo


S07E02 :The Longbow Hunters

Odkaz na stiahnutie:
Pre zobrazenie odkazov sa musíte alebo


S07E03 :Crossing Lines

Odkaz na stiahnutie:
Pre zobrazenie odkazov sa musíte alebo


S07E04 :Level Two

Odkaz na stiahnutie:
Pre zobrazenie odkazov sa musíte alebo

Späť na Movie - TV seriály

Kto je on-line

Užívatelia prezerajúci fórum: Žiadny registrovaný užívateľ nie je prítomný a 0 hostia