Baby Driver (2017)

Filmy v HD formáte, dabované zahraničné filmy, slovenská a česká produkcia
vratkodemarko
Excellent User
Excellent User
 
Príspevky: 994
Registrovaný: Pia Feb 17, 2012 3:03 pm
Poďakoval: 3 krát
Poďakovali mi: 114 krát

Baby Driver (2017)

Poslaťod vratkodemarko » Štv Okt 12, 2017 12:00 am

Obrázok


Obrázok
Odkaz na stiahnutie:
Pre zobrazenie odkazov sa musíte alebo


Obrázok
D:\prenos\Baby.Driver.2017.720p.BluRay.DD5.1.x264-VietHD.DD5.1.CZ-DbH.mkv
General
Unique ID : 195591875777649582487632073692210511556 (0x9325A002E097E0BAB1817780380FBEC4)
Complete name : D:\prenos\Baby.Driver.2017.720p.BluRay.DD5.1.x264-VietHD.DD5.1.CZ-DbH.mkv
Format : Matroska
Format version : Version 4 / Version 2
File size : 6.48 GiB
Duration : 1 h 52 min
Overall bit rate : 8 240 kb/s
Movie name : Baby Driver (2017) (CZ/EN) @ DbH
Encoded date : UTC 2017-10-10 19:09:12
Writing application : mkvmerge v7.4.0 ('Circles') 64bit built on Dec 12 2014 12:19:56
Writing library : libebml v1.3.0 + libmatroska v1.4.1
Video #1
ID : 1
Format : AVC
Format/Info : Advanced Video Codec
Format profile : High@L4.1
Format settings, CABAC : Yes
Format settings, ReFrames : 12 frames
Codec ID : V_MPEG4/ISO/AVC
Duration : 1 h 52 min
Bit rate : 6 919 kb/s
Width : 1 280 pixels
Height : 536 pixels
Display aspect ratio : 2.40:1
Frame rate mode : Constant
Frame rate : 23.976 (24000/1001) FPS
Color space : YUV
Chroma subsampling : 4:2:0
Bit depth : 8 bits
Scan type : Progressive
Bits/(Pixel*Frame) : 0.421
Stream size : 5.44 GiB (84%)
Title : Baby.Driver.2017.720p.BluRay.DD5.1.x264-VietHD
Writing library : x264 core 152 r2851kMod ba24899
Encoding settings : cabac=1 / ref=12 / deblock=1:-3:-3 / analyse=0x3:0x133 / me=umh / subme=10 / psy=1 / fade_compensate=0.00 / psy_rd=1.05:0.00 / mixed_ref=1 / me_range=24 / chroma_me=1 / trellis=2 / 8x8dct=1 / cqm=0 / deadzone=21,11 / fast_pskip=0 / chroma_qp_offset=-2 / threads=24 / lookahead_threads=4 / sliced_threads=0 / nr=0 / decimate=0 / interlaced=0 / bluray_compat=0 / constrained_intra=0 / bframes=8 / b_pyramid=2 / b_adapt=2 / b_bias=0 / direct=3 / weightb=1 / open_gop=0 / weightp=2 / keyint=250 / keyint_min=23 / scenecut=40 / intra_refresh=0 / rc_lookahead=60 / rc=crf / mbtree=0 / crf=17.0000 / qcomp=0.60 / qpmin=0 / qpmax=69 / qpstep=4 / vbv_maxrate=62500 / vbv_bufsize=78125 / crf_max=0.0 / nal_hrd=none / filler=0 / ip_ratio=1.30 / pb_ratio=1.20 / aq=3:0.75
Language : English
Default : Yes
Forced : No
Color range : Limited
Matrix coefficients : BT.709
Audio #2
ID : 2
Format : AC-3
Format/Info : Audio Coding 3
Mode extension : CM (complete main)
Format settings, Endianness : Big
Codec ID : A_AC3
Duration : 1 h 52 min
Bit rate mode : Constant
Bit rate : 640 kb/s
Channel(s) : 6 channels
Channel positions : Front: L C R, Side: L R, LFE
Sampling rate : 48.0 kHz
Frame rate : 31.250 FPS (1536 spf)
Compression mode : Lossy
Stream size : 516 MiB (8%)
Title : CZ DD 5.1 @ 640 Kbps BluRay
Language : Czech
Default : Yes
Forced : Yes
Audio #3
ID : 3
Format : AC-3
Format/Info : Audio Coding 3
Mode extension : CM (complete main)
Format settings, Endianness : Big
Codec ID : A_AC3
Duration : 1 h 52 min
Bit rate mode : Constant
Bit rate : 640 kb/s
Channel(s) : 6 channels
Channel positions : Front: L C R, Side: L R, LFE
Sampling rate : 48.0 kHz
Frame rate : 31.250 FPS (1536 spf)
Compression mode : Lossy
Stream size : 516 MiB (8%)
Title : EN DD 5.1 @ 640 Kbps BluRay
Language : English
Default : No
Forced : No
Text #4
ID : 4
Format : UTF-8
Codec ID : S_TEXT/UTF8
Codec ID/Info : UTF-8 Plain Text
Duration : 1 h 38 min
Bit rate : 1 b/s
Count of elements : 55
Stream size : 1.15 KiB (0%)
Title : CZ forced
Language : Czech
Default : Yes
Forced : Yes
Text #5
ID : 5
Format : UTF-8
Codec ID : S_TEXT/UTF8
Codec ID/Info : UTF-8 Plain Text
Duration : 1 h 51 min
Bit rate : 53 b/s
Count of elements : 1359
Stream size : 44.0 KiB (0%)
Title : CZ
Language : Czech
Default : No
Forced : No
Text #6
ID : 6
Format : UTF-8
Codec ID : S_TEXT/UTF8
Codec ID/Info : UTF-8 Plain Text
Duration : 1 h 16 min
Bit rate : 1 b/s
Count of elements : 49
Stream size : 738 Bytes (0%)
Title : EN forced
Language : English
Default : No
Forced : No
Text #7
ID : 7
Format : UTF-8
Codec ID : S_TEXT/UTF8
Codec ID/Info : UTF-8 Plain Text
Duration : 1 h 49 min
Bit rate : 59 b/s
Count of elements : 1554
Stream size : 48.2 KiB (0%)
Title : EN
Language : English
Default : No
Forced : No
Text #8
ID : 8
Format : PGS
Muxing mode : zlib
Codec ID : S_HDMV/PGS
Codec ID/Info : Picture based subtitle format used on BDs/HD-DVDs
Duration : 1 h 51 min
Bit rate : 21.4 kb/s
Count of elements : 2718
Stream size : 17.1 MiB (0%)
Title : CZ PGS
Language : Czech
Default : No
Forced : No
Text #9
ID : 9
Format : PGS
Muxing mode : zlib
Codec ID : S_HDMV/PGS
Codec ID/Info : Picture based subtitle format used on BDs/HD-DVDs
Duration : 1 h 51 min
Bit rate : 17.9 kb/s
Count of elements : 2696
Stream size : 14.3 MiB (0%)
Title : SK PGS
Language : Slovak
Default : No
Forced : No
Jazyk : CZ Dabing



Obrázok
Obrázok
Odkaz na stiahnutie:
Pre zobrazenie odkazov sa musíte alebo

rybar
Gold User
Gold User
 
Príspevky: 1457
Registrovaný: Str Okt 29, 2008 11:04 pm
Poďakoval: 65 krát
Poďakovali mi: 1093 krát

Re: Baby Driver (2017)

Poslaťod rybar » Ned Okt 22, 2017 1:07 pm

Baby Driver (2017)

CSFD:

Odkaz na stiahnutie:
Pre zobrazenie odkazov sa musíte alebo


Obrázok


Baby.Driver.2017.720p.BluRay.x264.DD5.1.CZ
Baby.Driver.2017.1080p.BluRay.x264.DD5.1.CZ
Baby.Driver.2017.1080p.BluRay.x264.DD5.1.CZ


Baby.Driver.2017.720p.BluRay.x264.DD5.1.CZ
Jazyk: Czech 5,1 640 Kbps , English 5.1 640 Kbps
Subtitles: Czech forced , Czech , Slovak , English

iNFO

Odkaz na stiahnutie:
Pre zobrazenie odkazov sa musíte alebo


Obrázok
Odkaz na stiahnutie:
Pre zobrazenie odkazov sa musíte alebo

Odkaz na stiahnutie:
Pre zobrazenie odkazov sa musíte alebo

Přidán záznam na opravu dat 5%.
Baby.Driver.2017.1080p.BluRay.x264.DD5.1.CZ
Jazyk: Czech 5.1 640 Kbps , English 5.1 640 Kbps
Subtitles: Cxech forced , Czech , Slovak , English
iNFO

Odkaz na stiahnutie:
Pre zobrazenie odkazov sa musíte alebo


Obrázok
Odkaz na stiahnutie:
Pre zobrazenie odkazov sa musíte alebo

Odkaz na stiahnutie:
Pre zobrazenie odkazov sa musíte alebo

Přidán záznam na opravu dat 5%.
Baby.Driver.2017.1080p.BluRay.x264.DD5.1.CZ
Jazyk: Czech 5.1 640 Kbps , English 5.1 640 Kbps
Subtitles: Czech forced , Czech , Slovak , English
iNFO

Odkaz na stiahnutie:
Pre zobrazenie odkazov sa musíte alebo


Obrázok
Odkaz na stiahnutie:
Pre zobrazenie odkazov sa musíte alebo

Přidán záznam na opravu dat 5%.

vratkodemarko
Excellent User
Excellent User
 
Príspevky: 994
Registrovaný: Pia Feb 17, 2012 3:03 pm
Poďakoval: 3 krát
Poďakovali mi: 114 krát

Re: Baby Driver (2017)

Poslaťod vratkodemarko » Ned Nov 12, 2017 12:59 pm

Obrázok


Obrázok
Odkaz na stiahnutie:
Pre zobrazenie odkazov sa musíte alebo


Obrázok
D:\prenos\Baby.Driver.2017.720p.BluRay.DD5.1.x264-VietHD.DD5.1.CZ-DbH.mkv
General
Unique ID : 195591875777649582487632073692210511556 (0x9325A002E097E0BAB1817780380FBEC4)
Complete name : D:\prenos\Baby.Driver.2017.720p.BluRay.DD5.1.x264-VietHD.DD5.1.CZ-DbH.mkv
Format : Matroska
Format version : Version 4 / Version 2
File size : 6.48 GiB
Duration : 1 h 52 min
Overall bit rate : 8 240 kb/s
Movie name : Baby Driver (2017) (CZ/EN) @ DbH
Encoded date : UTC 2017-10-10 19:09:12
Writing application : mkvmerge v7.4.0 ('Circles') 64bit built on Dec 12 2014 12:19:56
Writing library : libebml v1.3.0 + libmatroska v1.4.1
Video #1
ID : 1
Format : AVC
Format/Info : Advanced Video Codec
Format profile : High@L4.1
Format settings, CABAC : Yes
Format settings, ReFrames : 12 frames
Codec ID : V_MPEG4/ISO/AVC
Duration : 1 h 52 min
Bit rate : 6 919 kb/s
Width : 1 280 pixels
Height : 536 pixels
Display aspect ratio : 2.40:1
Frame rate mode : Constant
Frame rate : 23.976 (24000/1001) FPS
Color space : YUV
Chroma subsampling : 4:2:0
Bit depth : 8 bits
Scan type : Progressive
Bits/(Pixel*Frame) : 0.421
Stream size : 5.44 GiB (84%)
Title : Baby.Driver.2017.720p.BluRay.DD5.1.x264-VietHD
Writing library : x264 core 152 r2851kMod ba24899
Encoding settings : cabac=1 / ref=12 / deblock=1:-3:-3 / analyse=0x3:0x133 / me=umh / subme=10 / psy=1 / fade_compensate=0.00 / psy_rd=1.05:0.00 / mixed_ref=1 / me_range=24 / chroma_me=1 / trellis=2 / 8x8dct=1 / cqm=0 / deadzone=21,11 / fast_pskip=0 / chroma_qp_offset=-2 / threads=24 / lookahead_threads=4 / sliced_threads=0 / nr=0 / decimate=0 / interlaced=0 / bluray_compat=0 / constrained_intra=0 / bframes=8 / b_pyramid=2 / b_adapt=2 / b_bias=0 / direct=3 / weightb=1 / open_gop=0 / weightp=2 / keyint=250 / keyint_min=23 / scenecut=40 / intra_refresh=0 / rc_lookahead=60 / rc=crf / mbtree=0 / crf=17.0000 / qcomp=0.60 / qpmin=0 / qpmax=69 / qpstep=4 / vbv_maxrate=62500 / vbv_bufsize=78125 / crf_max=0.0 / nal_hrd=none / filler=0 / ip_ratio=1.30 / pb_ratio=1.20 / aq=3:0.75
Language : English
Default : Yes
Forced : No
Color range : Limited
Matrix coefficients : BT.709
Audio #2
ID : 2
Format : AC-3
Format/Info : Audio Coding 3
Mode extension : CM (complete main)
Format settings, Endianness : Big
Codec ID : A_AC3
Duration : 1 h 52 min
Bit rate mode : Constant
Bit rate : 640 kb/s
Channel(s) : 6 channels
Channel positions : Front: L C R, Side: L R, LFE
Sampling rate : 48.0 kHz
Frame rate : 31.250 FPS (1536 spf)
Compression mode : Lossy
Stream size : 516 MiB (8%)
Title : CZ DD 5.1 @ 640 Kbps BluRay
Language : Czech
Default : Yes
Forced : Yes
Audio #3
ID : 3
Format : AC-3
Format/Info : Audio Coding 3
Mode extension : CM (complete main)
Format settings, Endianness : Big
Codec ID : A_AC3
Duration : 1 h 52 min
Bit rate mode : Constant
Bit rate : 640 kb/s
Channel(s) : 6 channels
Channel positions : Front: L C R, Side: L R, LFE
Sampling rate : 48.0 kHz
Frame rate : 31.250 FPS (1536 spf)
Compression mode : Lossy
Stream size : 516 MiB (8%)
Title : EN DD 5.1 @ 640 Kbps BluRay
Language : English
Default : No
Forced : No
Text #4
ID : 4
Format : UTF-8
Codec ID : S_TEXT/UTF8
Codec ID/Info : UTF-8 Plain Text
Duration : 1 h 38 min
Bit rate : 1 b/s
Count of elements : 55
Stream size : 1.15 KiB (0%)
Title : CZ forced
Language : Czech
Default : Yes
Forced : Yes
Text #5
ID : 5
Format : UTF-8
Codec ID : S_TEXT/UTF8
Codec ID/Info : UTF-8 Plain Text
Duration : 1 h 51 min
Bit rate : 53 b/s
Count of elements : 1359
Stream size : 44.0 KiB (0%)
Title : CZ
Language : Czech
Default : No
Forced : No
Text #6
ID : 6
Format : UTF-8
Codec ID : S_TEXT/UTF8
Codec ID/Info : UTF-8 Plain Text
Duration : 1 h 16 min
Bit rate : 1 b/s
Count of elements : 49
Stream size : 738 Bytes (0%)
Title : EN forced
Language : English
Default : No
Forced : No
Text #7
ID : 7
Format : UTF-8
Codec ID : S_TEXT/UTF8
Codec ID/Info : UTF-8 Plain Text
Duration : 1 h 49 min
Bit rate : 59 b/s
Count of elements : 1554
Stream size : 48.2 KiB (0%)
Title : EN
Language : English
Default : No
Forced : No
Text #8
ID : 8
Format : PGS
Muxing mode : zlib
Codec ID : S_HDMV/PGS
Codec ID/Info : Picture based subtitle format used on BDs/HD-DVDs
Duration : 1 h 51 min
Bit rate : 21.4 kb/s
Count of elements : 2718
Stream size : 17.1 MiB (0%)
Title : CZ PGS
Language : Czech
Default : No
Forced : No
Text #9
ID : 9
Format : PGS
Muxing mode : zlib
Codec ID : S_HDMV/PGS
Codec ID/Info : Picture based subtitle format used on BDs/HD-DVDs
Duration : 1 h 51 min
Bit rate : 17.9 kb/s
Count of elements : 2696
Stream size : 14.3 MiB (0%)
Title : SK PGS
Language : Slovak
Default : No
Forced : No
Jazyk : CZ Dabing



Obrázok
Obrázok
Odkaz na stiahnutie:
Pre zobrazenie odkazov sa musíte alebo

Obrázok užívateľa
odyseus
Prispievateľ
Prispievateľ
 
Príspevky: 103
Registrovaný: Ned Apr 13, 2008 10:45 am
Poďakoval: 10 krát
Poďakovali mi: 3 krát

Re: Baby Driver (2017)

Poslaťod odyseus » Str Aug 14, 2019 9:10 am

Info:
Odkaz na stiahnutie:
Pre zobrazenie odkazov sa musíte alebo

Obrázok

Odkaz na stiahnutie:
Pre zobrazenie odkazov sa musíte alebo

Video: 1920 x 800
Audio: CZ 5.1

Obrázok
Odkaz na stiahnutie:
Pre zobrazenie odkazov sa musíte alebo


Späť na HD Movie - SK/CZ Filmy

Kto je on-line

Užívatelia prezerajúci fórum: Žiadny registrovaný užívateľ nie je prítomný a 3 hostia