Bajkeři (2017)

Dabované zahraničné filmy, slovenská a česká produkcia
Obrázok užívateľa
alta
Prispievateľ
Prispievateľ
 
Príspevky: 53
Registrovaný: Pon Júl 20, 2009 2:37 pm
Poďakoval: 4 krát
Poďakovali mi: 6 krát

Bajkeři (2017)

Poslaťod alta » Pon Mar 12, 2018 6:16 pm

Bajkeři (2017) CZ
Obal/Cover:

Obrázok

Informácie/Informations:

Odkaz na stiahnutie:
Pre zobrazenie odkazov sa musíte alebo


Kvalita/Quality:

Format : Matroska
Format version : Version 2
File size : 1.06 GiB
Duration : 1 h 32 min
Overall bit rate : 1 634 kb/s
Encoded date : UTC 2018-03-11 18:33:15
Writing application : mkvmerge v19.0.0 ('Brave Captain') 64-bit
Writing library : libebml v1.3.5 + libmatroska v1.4.8

Video
ID : 1
Format : AVC
Format/Info : Advanced Video Codec
Format profile : High@L4.1
Format settings : CABAC / 16 Ref Frames
Format settings, CABAC : Yes
Format settings, ReFrames : 16 frames
Codec ID : V_MPEG4/ISO/AVC
Duration : 1 h 32 min
Bit rate : 1 250 kb/s
Width : 720 pixels
Height : 342 pixels
Display aspect ratio : 2.105
Frame rate mode : Constant
Frame rate : 25.000 FPS
Color space : YUV
Chroma subsampling : 4:2:0
Bit depth : 8 bits
Scan type : Progressive
Bits/(Pixel*Frame) : 0.203
Stream size : 828 MiB (76%)
Title : TreZzoR
Writing library : x264 core 152 r2851kMod ba24899
Encoding settings : cabac=1 / ref=16 / deblock=1:-3:-3 / analyse=0x3:0x133 / me=umh / subme=11 / psy=1 / fade_compensate=0.00 / psy_rd=1.00:0.00 / mixed_ref=1 / me_range=32 / chroma_me=1 / trellis=2 / 8x8dct=1 / cqm=0 / deadzone=21,11 / fast_pskip=0 / chroma_qp_offset=-2 / threads=11 / lookahead_threads=2 / sliced_threads=0 / nr=0 / decimate=0 / interlaced=0 / bluray_compat=0 / constrained_intra=0 / bframes=10 / b_pyramid=2 / b_adapt=2 / b_bias=0 / direct=3 / weightb=1 / open_gop=0 / weightp=2 / keyint=250 / keyint_min=25 / scenecut=40 / intra_refresh=0 / rc_lookahead=0 / rc=2pass / mbtree=0 / bitrate=1250 / ratetol=1.0 / qcomp=0.65 / qpmin=0 / qpmax=69 / qpstep=4 / cplxblur=20.0 / qblur=0.5 / vbv_maxrate=50000 / vbv_bufsize=62500 / nal_hrd=none / filler=0 / ip_ratio=1.30 / pb_ratio=1.20 / aq=1:0.90
Language : English
Default : Yes
Forced : No

Audio
ID : 2
Format : AC-3
Format/Info : Audio Coding 3
Codec ID : A_AC3
Duration : 1 h 32 min
Bit rate mode : Constant
Bit rate : 384 kb/s
Channel(s) : 6 channels
Channel positions : Front: L C R, Side: L R, LFE
Sampling rate : 48.0 kHz
Frame rate : 31.250 FPS (1536 SPF)
Bit depth : 16 bits
Compression mode : Lossy
Stream size : 255 MiB (23%)
Language : Czech
Service kind : Complete Main
Default : Yes
Forced : No

Menu
00:00:00.000 : en:1
00:07:37.520 : en:2
00:14:30.720 : en:3
00:20:55.520 : en:4
00:27:49.680 : en:5
00:35:43.920 : en:6
00:42:23.280 : en:7
00:51:46.560 : en:8
00:58:14.560 : en:9
01:08:38.400 : en:10
01:19:07.920 : en:11
01:29:11.400 : en:12


Stahuj/Downlaod:

Odkaz na stiahnutie:
Pre zobrazenie odkazov sa musíte alebo


Heslo/Password:
Odkaz na stiahnutie:
Pre zobrazenie odkazov sa musíte alebo
CPU : Intel Core i7-4770K
RAM : 16 GB Corsair
GPU : GeForce GTX 1060 6GB
HDD : 250 GB SSD, 4 TB HDD
OS : Win 7 Home / Win 10 Pro
Acer XB281 G-SYNC 4K 1ms

rybar
Gold User
Gold User
 
Príspevky: 1458
Registrovaný: Str Okt 29, 2008 11:04 pm
Poďakoval: 65 krát
Poďakovali mi: 1095 krát

Re: Bajkeři (2017)

Poslaťod rybar » Uto Mar 13, 2018 7:15 am

Bajkeři (2017)

CSFD:

Odkaz na stiahnutie:
Pre zobrazenie odkazov sa musíte alebo


Obrázok

Bajkeri.2017.DVDRip.x264.AC3.DD5.1.CZ

Bajkeri.2017.DVDRip.x264.AC3.DD5.1.CZ
Jazyk: Czech 5.1 448 Kbps
Subtitles: Ne

iNFO

Odkaz na stiahnutie:
Pre zobrazenie odkazov sa musíte alebo


Obrázok
Odkaz na stiahnutie:
Pre zobrazenie odkazov sa musíte alebo

fajfo
Power User
Power User
 
Príspevky: 452
Registrovaný: Pon Apr 28, 2008 10:05 pm
Poďakoval: 2 krát
Poďakovali mi: 152 krát

Re: Bajkeři (2017)

Poslaťod fajfo » Pia Mar 16, 2018 6:12 pm

Bajkeři CZ

Obrázok

Obrázok

Odkaz na stiahnutie:
Pre zobrazenie odkazov sa musíte alebo


Kvalita

Odkaz na stiahnutie:
Pre zobrazenie odkazov sa musíte alebo


DOWNLOAD

Obrázok
Odkaz na stiahnutie:
Pre zobrazenie odkazov sa musíte alebo


Obrázok
Odkaz na stiahnutie:
Pre zobrazenie odkazov sa musíte alebo


RAR heslo : fajfo


Späť na Movie - SK/CZ Filmy

Kto je on-line

Užívatelia prezerajúci fórum: atyp, kurekm, LaGe, Pitu86 a 1 hosť