Batman vs. Robin / Batman vs. Robin (2015)

Rozprávky a animované filmy ( iba SK a CZ dabing! )
Bavarese
Power User
Power User
 
Príspevky: 473
Registrovaný: Pon Apr 27, 2015 11:15 pm
Poďakoval: 0 krát
Poďakovali mi: 252 krát

Batman vs. Robin / Batman vs. Robin (2015)

Poslaťod Bavarese » Pia Máj 15, 2015 10:19 pm

Batman vs. Robin / Batman vs. Robin (2015)

Batman.vs.Robin.2015.BDRip.XviD.CZ-HiDE
Batman.vs.Robin.2015.480p.BDRip.XviD.AC3.CZ-HiDE
Batman.vs.Robin.2015.720p.BDRip.XviD.AC3.CZ-HiDE

Obrázok
Odkaz na stiahnutie:
Pre zobrazenie odkazov sa musíte alebo



Batman.vs.Robin.2015.BDRip.XviD.CZ-HiDE
INFO
Odkaz na stiahnutie:
Pre zobrazenie odkazov sa musíte alebo


DOWNLOAD

HELLSHARE
Odkaz na stiahnutie:
Pre zobrazenie odkazov sa musíte alebo


FASTSHARE
Odkaz na stiahnutie:
Pre zobrazenie odkazov sa musíte alebo


EUROSHARE
Odkaz na stiahnutie:
Pre zobrazenie odkazov sa musíte alebo


SDILEJ
Odkaz na stiahnutie:
Pre zobrazenie odkazov sa musíte alebo


BITSTER
Odkaz na stiahnutie:
Pre zobrazenie odkazov sa musíte alebo




==================



Batman.vs.Robin.2015.480p.BDRip.XviD.AC3.CZ-HiDE
INFO
Odkaz na stiahnutie:
Pre zobrazenie odkazov sa musíte alebo


DOWNLOAD

HELLSHARE
Odkaz na stiahnutie:
Pre zobrazenie odkazov sa musíte alebo


FASTSHARE
Odkaz na stiahnutie:
Pre zobrazenie odkazov sa musíte alebo


EUROSHARE
Odkaz na stiahnutie:
Pre zobrazenie odkazov sa musíte alebo


SDILEJ
Odkaz na stiahnutie:
Pre zobrazenie odkazov sa musíte alebo


BITSTER
Odkaz na stiahnutie:
Pre zobrazenie odkazov sa musíte alebo




==================



Batman.vs.Robin.2015.720p.BDRip.XviD.AC3.CZ-HiDE
INFO
Odkaz na stiahnutie:
Pre zobrazenie odkazov sa musíte alebo


DOWNLOAD

HELLSHARE
Odkaz na stiahnutie:
Pre zobrazenie odkazov sa musíte alebo


FASTSHARE
Odkaz na stiahnutie:
Pre zobrazenie odkazov sa musíte alebo


EUROSHARE
Odkaz na stiahnutie:
Pre zobrazenie odkazov sa musíte alebo


SDILEJ
Odkaz na stiahnutie:
Pre zobrazenie odkazov sa musíte alebo


BITSTER
Odkaz na stiahnutie:
Pre zobrazenie odkazov sa musíte alebo

NEXUS869
ourphorum ELITA
ourphorum ELITA
 
Príspevky: 2417
Registrovaný: Pia Jan 04, 2013 7:48 pm
Poďakoval: 9 krát
Poďakovali mi: 2235 krát

Batman vs. Robin (2015)

Poslaťod NEXUS869 » Pia Máj 15, 2015 10:48 pm

Obrázok

Batman vs. Robin
BDRip, CZ

Odkaz na stiahnutie:
Pre zobrazenie odkazov sa musíte alebo


Animovaný / Akční
USA, 2015


Obrázok

Odkaz na stiahnutie:
Pre zobrazenie odkazov sa musíte alebo


Obrázok
Odkaz na stiahnutie:
Pre zobrazenie odkazov sa musíte alebo
Naposledy upravil NEXUS869 dňa Sob Máj 16, 2015 1:31 am, celkovo upravené 1

Obrázok užívateľa
Padrone
Gold User
Gold User
 
Príspevky: 1452
Registrovaný: Str Júl 16, 2014 1:26 pm
Poďakoval: 4 krát
Poďakovali mi: 372 krát

Re: Batman vs. Robin / Batman vs. Robin (2015)

Poslaťod Padrone » Pia Máj 15, 2015 11:25 pm

Batman vs. Robin / Batman vs. Robin (2015)

Odkaz na stiahnutie:
Pre zobrazenie odkazov sa musíte alebo


Obrázok


Batman.vs.Robin.2015.BDRip.XviD.CZ-HiDE
Audio: CZ
Subtitles:


Odkaz na stiahnutie:
Pre zobrazenie odkazov sa musíte alebo


Odkaz na stiahnutie:
Pre zobrazenie odkazov sa musíte alebo

Odkaz na stiahnutie:
Pre zobrazenie odkazov sa musíte alebo

Odkaz na stiahnutie:
Pre zobrazenie odkazov sa musíte alebo

Odkaz na stiahnutie:
Pre zobrazenie odkazov sa musíte alebo

Odkaz na stiahnutie:
Pre zobrazenie odkazov sa musíte alebo

Odkaz na stiahnutie:
Pre zobrazenie odkazov sa musíte alebo

_________________________________________________________________

Batman.vs.Robin.2015.480p.BDRip.XviD.AC3.CZ-HiDE
Audio: CZ
Subtitles:


Odkaz na stiahnutie:
Pre zobrazenie odkazov sa musíte alebo


Odkaz na stiahnutie:
Pre zobrazenie odkazov sa musíte alebo

Odkaz na stiahnutie:
Pre zobrazenie odkazov sa musíte alebo

Odkaz na stiahnutie:
Pre zobrazenie odkazov sa musíte alebo

Odkaz na stiahnutie:
Pre zobrazenie odkazov sa musíte alebo

Odkaz na stiahnutie:
Pre zobrazenie odkazov sa musíte alebo

Odkaz na stiahnutie:
Pre zobrazenie odkazov sa musíte alebo

_________________________________________________________________

Batman.vs.Robin.2015.720p.BDRip.XviD.AC3.CZ-HiDE
Audio: CZ
Subtitles:


Odkaz na stiahnutie:
Pre zobrazenie odkazov sa musíte alebo


Odkaz na stiahnutie:
Pre zobrazenie odkazov sa musíte alebo

Odkaz na stiahnutie:
Pre zobrazenie odkazov sa musíte alebo

Odkaz na stiahnutie:
Pre zobrazenie odkazov sa musíte alebo

Odkaz na stiahnutie:
Pre zobrazenie odkazov sa musíte alebo

Odkaz na stiahnutie:
Pre zobrazenie odkazov sa musíte alebo

Odkaz na stiahnutie:
Pre zobrazenie odkazov sa musíte alebo

momo18
Top Prispievateľ
Top Prispievateľ
 
Príspevky: 281
Registrovaný: Pia Júl 18, 2008 5:37 pm
Poďakoval: 0 krát
Poďakovali mi: 24 krát

Batman vs. Robin / Batman vs. Robin (2015)

Poslaťod momo18 » Štv Aug 27, 2015 11:33 am

Batman vs. Robin / Batman vs. Robin 2015 CZ

Obrázok

CSFD 63%

Odkaz na stiahnutie:
Pre zobrazenie odkazov sa musíte alebo



VIDEO:

General

Format : Matroska
Format version : Version 2
File size : 1.25 GiB
Duration : 1h 19mn
Overall bit rate : 2 233 Kbps
Encoded date : UTC 2015-05-15 19:59:12
Writing application : mkvmerge v5.8.0 ('No Sleep / Pillow') built on Sep 2 2012 15:37:04
Writing library : libebml v1.2.3 + libmatroska v1.3.0

Video
ID : 1
Format : AVC
Format/Info : Advanced Video Codec
Format profile : Baseline@L3.0
Format settings, CABAC : No
Format settings, ReFrames : 1 frame
Muxing mode : Header stripping
Codec ID : V_MPEG4/ISO/AVC
Duration : 1h 19mn
Bit rate : 1 741 Kbps
Width : 1 920 pixels
Height : 1 080 pixels
Display aspect ratio : 16:9
Frame rate mode : Constant
Frame rate : 23.976 fps
Color space : YUV
Chroma subsampling : 4:2:0
Bit depth : 8 bits
Scan type : Progressive
Bits/(Pixel*Frame) : 0.035
Stream size : 996 MiB (78%)
Default : Yes
Forced : No

Audio
ID : 2
Format : AC-3
Format/Info : Audio Coding 3
Mode extension : CM (complete main)
Format settings, Endianness : Big
Muxing mode : Header stripping
Codec ID : A_AC3
Duration : 1h 19mn
Bit rate mode : Constant
Bit rate : 448 Kbps
Channel(s) : 6 channels
Channel positions : Front: L C R, Side: L R, LFE
Sampling rate : 48.0 KHz
Bit depth : 16 bits
Compression mode : Lossy
Stream size : 256 MiB (20%)
Default : Yes
Forced : No

Obrázok

Odkaz na stiahnutie:
Pre zobrazenie odkazov sa musíte alebo

Odkaz na stiahnutie:
Pre zobrazenie odkazov sa musíte alebo


Späť na Movie - Rozprávky a animované filmy

Kto je on-line

Užívatelia prezerajúci fórum: Žiadny registrovaný užívateľ nie je prítomný a 6 hostia