Blood Fest (2018)

Novinky 2016, premiéry, filmy bez dabingu a ostatné zahraničné filmy. DVD-rip, BluRay-rip, AVI, DivX a pod.
Luky753
Prispievateľ
Prispievateľ
 
Príspevky: 72
Registrovaný: Ned Nov 13, 2016 3:22 pm
Poďakoval: 0 krát
Poďakovali mi: 6 krát

Blood Fest (2018)

Poslaťod Luky753 » Str Nov 21, 2018 2:56 pm

Obrázok

Blood Fest (2018)

Horor / Komedie

USA, 2018, 90 min

Režie: Owen Egerton
Scénář: Owen Egerton
Kamera: David Blue Garcia
Hudba: Choppersaurus
Hrají: Zachary Levi, Tate Donovan, Jacob Batalon, Robbie Kay, Seychelle Gabriel, Nicholas Rutherford, Olivia Grace Applegate, Chris Doubek, Paul Ogola, Isla Cervelli

Fanúšikovia sa zhromažďujú na festival, ktorý oslavuje najznámejšie hororové filmy, len aby zistili, že charizmatický učenec za udalosťou má diabolský program. Keď účastníci festivalu začínajú zomierať, tri mladí ľudia, ktorí sa viac vzdelávajú v klauzulách o horrorových filmoch, ako praktické poznatky o neutralizujúcich psychoaktériách, sa musia spojiť a bojovať cez rôzne bláznivé a monstrózne osoby, aby prežili.

Odkaz na stiahnutie:
Pre zobrazenie odkazov sa musíte alebo


Format : Matroska
Format version : Version 4
File size : 1.35 GiB
Duration : 1 h 32 min
Overall bit rate : 2 084 kb/s

Video
Format : MPEG-4 Visual
Format profile : Advanced Simple@L5
Format settings : BVOP2
Format settings, BVOP : 2
Format settings, QPel : No
Format settings, GMC : No warppoints
Format settings, Matrix : Default (H.263)
Muxing mode : Packed bitstream
Codec ID : V_MS/VFW/FOURCC / XVID
Codec ID/Hint : XviD
Duration : 1 h 32 min
Bit rate : 1 698 kb/s
Width : 720 pixels
Height : 360 pixels

Display aspect ratio : 2.000
Frame rate mode : Constant
Frame rate : 23.976 (23976/1000) FPS

Audio
Format : AC-3
Format/Info : Audio Coding 3
Commercial name : Dolby Digital
Codec ID : A_AC3
Duration : 1 h 32 min
Bit rate mode : Constant
Bit rate : 384 kb/s
Channel(s) : 6 channels
Channel layout : L R C LFE Ls Rs
Sampling rate : 48.0 kHz
Frame rate : 31.250 FPS (1536 SPF)
Bit depth : 16 bits
Compression mode : Lossy
Stream size : 255 MiB (18%)
Service kind : Complete Main
Default : Yes
Forced : No

Text
ID : 3
Format : UTF-8
Codec ID : S_TEXT/UTF8
Codec ID/Info : UTF-8 Plain Text
Duration : 1 h 28 min
Bit rate : 59 b/s
Count of elements : 1092
Stream size : 38.6 KiB (0%)
Language : Czech

Obrázok

Odkaz na stiahnutie:
Pre zobrazenie odkazov sa musíte alebo

Späť na Movie - Zahraničné filmy

Kto je on-line

Užívatelia prezerajúci fórum: Žiadny registrovaný užívateľ nie je prítomný a 0 hostia