Captain America: Civil War/Captain America: Občanská..(2016)

Filmy v HD formáte, bez dabingu a ostatné zahraničné filmy
Obrázok užívateľa
NYDJ
Power User
Power User
 
Príspevky: 619
Registrovaný: Str Sep 18, 2013 4:09 pm
Poďakoval: 9 krát
Poďakovali mi: 411 krát

Captain America: Civil War/Captain America: Občanská..(2016)

Poslaťod NYDJ » Uto Aug 30, 2016 2:08 am

Captain America: Civil War/Captain America: Občanská Valka (2016)

Obrázok

Odkaz na stiahnutie:
Pre zobrazenie odkazov sa musíte alebo


Akční / Dobrodružný / Sci-Fi
USA, 2016, 147 min

Jazyk:Anglicky
Titulky:Cz

Captain.America.Civil.War.2016.720p.BRRip.XviD.AC3-RARBG

MI
Odkaz na stiahnutie:
Pre zobrazenie odkazov sa musíte alebo


Download
Odkaz na stiahnutie:
Pre zobrazenie odkazov sa musíte alebo
Každý jeden moj upload je bez hesla.Nefunkčné linky mi píšte do pošty SS. Poďakovanie poteší.

Jack86
Top Prispievateľ
Top Prispievateľ
 
Príspevky: 226
Registrovaný: Sob Jan 03, 2009 6:05 pm
Poďakoval: 0 krát
Poďakovali mi: 37 krát

Re: Captain America: Civil War/Captain America: Občanská..(2

Poslaťod Jack86 » Uto Aug 30, 2016 4:46 am

Obrázok



Odkaz na stiahnutie:
Pre zobrazenie odkazov sa musíte alebo



Captain.America.Civil.War.2016.1080p.BluRay.X264-AMIABLE + titulky


Audio: EN
Titulky: CZ


Odkaz na stiahnutie:
Pre zobrazenie odkazov sa musíte alebo


Odkaz na stiahnutie:
Pre zobrazenie odkazov sa musíte alebo


Odkaz na stiahnutie:
Pre zobrazenie odkazov sa musíte alebo


Odkaz na stiahnutie:
Pre zobrazenie odkazov sa musíte alebo



Upload 3% na opravu dat

no pass

TomMohel
Gold User
Gold User
 
Príspevky: 1616
Registrovaný: Pia Mar 22, 2013 9:38 pm
Poďakoval: 2 krát
Poďakovali mi: 389 krát

Re: Captain America: Civil War/Captain America: Občanská..(2

Poslaťod TomMohel » Uto Aug 30, 2016 8:03 am

Captain America: Civil War / Captain America: Občanská válka (2016)

Odkaz na stiahnutie:
Pre zobrazenie odkazov sa musíte alebo


Obrázok

Release: Captain.America.Civil.War.2016.720p.BluRay.X264-AMIABLE
Jazyk: EN DTS 5.1
Titulky: CZ, EN

MediaInfo
Odkaz na stiahnutie:
Pre zobrazenie odkazov sa musíte alebo


Hellshare, Euroshare, Fastshare, Sdilej, Ulozto 3x2GB, 1x1GB
Odkaz na stiahnutie:
Pre zobrazenie odkazov sa musíte alebo

Odkaz na stiahnutie:
Pre zobrazenie odkazov sa musíte alebo

Odkaz na stiahnutie:
Pre zobrazenie odkazov sa musíte alebo

Odkaz na stiahnutie:
Pre zobrazenie odkazov sa musíte alebo

Odkaz na stiahnutie:
Pre zobrazenie odkazov sa musíte alebo


Release: captain.america.civil.war.2016.1080p.bluray.x264-amiable
Jazyk: EN DTS 5.1
Titulky: CZ, EN

MediaInfo
Odkaz na stiahnutie:
Pre zobrazenie odkazov sa musíte alebo


Hellshare, Euroshare, Fastshare, Sdilej, Ulozto 5x2GB, 1x1,7GB
Odkaz na stiahnutie:
Pre zobrazenie odkazov sa musíte alebo

Odkaz na stiahnutie:
Pre zobrazenie odkazov sa musíte alebo

Odkaz na stiahnutie:
Pre zobrazenie odkazov sa musíte alebo

Odkaz na stiahnutie:
Pre zobrazenie odkazov sa musíte alebo

Odkaz na stiahnutie:
Pre zobrazenie odkazov sa musíte alebo

Jack86
Top Prispievateľ
Top Prispievateľ
 
Príspevky: 226
Registrovaný: Sob Jan 03, 2009 6:05 pm
Poďakoval: 0 krát
Poďakovali mi: 37 krát

Re: Captain America: Civil War/Captain America: Občanská..(2

Poslaťod Jack86 » Štv Sep 01, 2016 3:41 am

Obrázok



Odkaz na stiahnutie:
Pre zobrazenie odkazov sa musíte alebo



Captain.America.Civil.War.2016.1080p.BluRay.x264.DTS-HD.MA.7.1-FGT + titulky


Audio: EN
Titulky: CZ


Odkaz na stiahnutie:
Pre zobrazenie odkazov sa musíte alebo


Odkaz na stiahnutie:
Pre zobrazenie odkazov sa musíte alebo


Odkaz na stiahnutie:
Pre zobrazenie odkazov sa musíte alebo


Odkaz na stiahnutie:
Pre zobrazenie odkazov sa musíte alebo


Captain.America.Civil.War.2016.1080p.BluRay.REMUX.AVC.DTS-HD.MA.7.1-FGT + titulky


Audio: EN
Titulky: CZ


Odkaz na stiahnutie:
Pre zobrazenie odkazov sa musíte alebo


Odkaz na stiahnutie:
Pre zobrazenie odkazov sa musíte alebo


Odkaz na stiahnutie:
Pre zobrazenie odkazov sa musíte alebo


Odkaz na stiahnutie:
Pre zobrazenie odkazov sa musíte alebo



Upload 3% na opravu dat

no pass

creative_spark
Nový člen
Nový člen
 
Príspevky: 3
Registrovaný: Pon Jan 12, 2009 3:51 pm
Poďakoval: 19 krát
Poďakovali mi: 1 krát

Re: Captain America: Civil War/Captain America: Občanská..(2

Poslaťod creative_spark » Štv Sep 15, 2016 2:18 pm

prosim reupload 1080p verzie

strefko
Moj prvý príspevok !
Moj prvý príspevok !
 
Príspevky: 1
Registrovaný: Pon Aug 31, 2015 9:51 pm
Poďakoval: 0 krát
Poďakovali mi: 0 krát

Re: Captain America: Civil War/Captain America: Občanská..(2

Poslaťod strefko » Pia Dec 23, 2016 2:43 pm

nefunkčné

Jack86 píše:Obrázok



Odkaz na stiahnutie:
Pre zobrazenie odkazov sa musíte alebo



Captain.America.Civil.War.2016.1080p.BluRay.x264.DTS-HD.MA.7.1-FGT + titulky


Audio: EN
Titulky: CZ


Odkaz na stiahnutie:
Pre zobrazenie odkazov sa musíte alebo


Odkaz na stiahnutie:
Pre zobrazenie odkazov sa musíte alebo


Odkaz na stiahnutie:
Pre zobrazenie odkazov sa musíte alebo


Odkaz na stiahnutie:
Pre zobrazenie odkazov sa musíte alebo


Captain.America.Civil.War.2016.1080p.BluRay.REMUX.AVC.DTS-HD.MA.7.1-FGT + titulky


Audio: EN
Titulky: CZ


Odkaz na stiahnutie:
Pre zobrazenie odkazov sa musíte alebo


Odkaz na stiahnutie:
Pre zobrazenie odkazov sa musíte alebo


Odkaz na stiahnutie:
Pre zobrazenie odkazov sa musíte alebo


Odkaz na stiahnutie:
Pre zobrazenie odkazov sa musíte alebo



Upload 3% na opravu dat

no pass

vratkodemarko
Excellent User
Excellent User
 
Príspevky: 986
Registrovaný: Pia Feb 17, 2012 3:03 pm
Poďakoval: 3 krát
Poďakovali mi: 106 krát

Re: Captain America: Civil War/Captain America: Občanská..(2

Poslaťod vratkodemarko » Sob Okt 28, 2017 4:47 pm

Obrázok


Obrázok
Odkaz na stiahnutie:
Pre zobrazenie odkazov sa musíte alebo


Obrázok
D:\prenos\Captain.America.Civil.War.2016.1080p.BluRay.DTS.AC3.CZ.EN.x264-PiRaTE.mkv
General
Unique ID : 244129644585014556338327541979554686045 (0xB7A9A8C6B2A946C59DAF896467EAA45D)
Complete name : D:\prenos\Captain.America.Civil.War.2016.1080p.BluRay.DTS.AC3.CZ.EN.x264-PiRaTE.mkv
Format : Matroska
Format version : Version 4 / Version 2
File size : 14.9 GiB
Duration : 2h 27mn
Overall bit rate : 14.5 Mbps
Movie name : Captain America: Civil War 2016 1080p BluRay DTS x264-TayTO
Encoded date : UTC 2016-09-11 09:32:14
Writing application : mkvmerge v9.4.0 ('Knurl') 32bit
Writing library : libebml v1.3.4 + libmatroska v1.4.5
DURATION : 02:26:19.070000000
NUMBER_OF_FRAMES : 1674
NUMBER_OF_BYTES : 50593
_STATISTICS_WRITING_APP : mkvmerge v9.4.0 ('Knurl') 32bit
_STATISTICS_WRITING_DATE_UTC : 2016-09-11 09:32:14
_STATISTICS_TAGS : BPS DURATION NUMBER_OF_FRAMES NUMBER_OF_BYTES
Attachment : Yes
Video #1
ID : 1
Format : AVC
Format/Info : Advanced Video Codec
Format profile : High@L4.1
Format settings, CABAC : Yes
Format settings, ReFrames : 5 frames
Codec ID : V_MPEG4/ISO/AVC
Duration : 2h 27mn
Bit rate : 12.3 Mbps
Width : 1 920 pixels
Height : 804 pixels
Display aspect ratio : 2.40:1
Frame rate : 23.976 fps
Color space : YUV
Chroma subsampling : 4:2:0
Bit depth : 8 bits
Scan type : Progressive
Bits/(Pixel*Frame) : 0.332
Stream size : 12.7 GiB (85%)
Title : Captain America: Civil War 2016 1080p BluRay DTS x264-TayTO
Writing library : x264 core 148 r2705+54 9f484c1 t_mod_Custom [8-bit@all X86_64]
Encoding settings : cabac=1 / ref=5 / deblock=1:-3:-3 / analyse=0x3:0x133 / me=umh / subme=11 / psy=1 / fade_compensate=0.00 / psy_rd=1.05:0.00 / mixed_ref=1 / me_range=32 / chroma_me=1 / trellis=2 / 8x8dct=1 / cqm=0 / deadzone=21,11 / fast_pskip=0 / chroma_qp_offset=-2 / threads=12 / lookahead_threads=2 / sliced_threads=0 / nr=0 / decimate=0 / interlaced=0 / bluray_compat=0 / constrained_intra=0 / fgo=0 / bframes=9 / b_pyramid=2 / b_adapt=2 / b_bias=0 / direct=3 / weightb=1 / open_gop=0 / weightp=2 / keyint=250 / keyint_min=23 / scenecut=40 / intra_refresh=0 / rc_lookahead=60 / rc=crf / mbtree=0 / crf=17.0000 / qcomp=0.65 / qpmin=0:0:0 / qpmax=69:69:69 / qpstep=4 / vbv_maxrate=62500 / vbv_bufsize=78125 / crf_max=0.0 / nal_hrd=none / filler=0 / ip_ratio=1.30 / pb_ratio=1.20 / aq=3:0.75 / aq-sensitivity=10.00 / aq-factor=1.00:1.00:1.00 / aq2=0 / aq3=0 / zones=140,444,crf=15.5/1040,1422,crf=15.5/1423,3066,crf=16/3067,3090,crf=15.5/3115,3192,crf=15.5/3915,4463,crf=15.5/8356,8380,crf=15.5/8899,9010,crf=15.5/9511,9634,crf=15.5/9635,9917,crf=16/9918,10040,crf=15.5/10041,10060,crf=14/10061,10208,crf=15.5/10562,10692,crf=15.5/11919,12149,crf=15.5/12319,12359,crf=15.5/15936,15942,crf=15.5/15966,15987,crf=15.5/17991,18189,crf=15.5/18398,18461,crf=15.5/23371,23888,crf=15.8/35085,35990,crf=15.8/38869,39030,crf=15.8/40571,45456,crf=16.5/45570,45618,crf=15.5/45969,46091,crf=15.5/47028,47267,crf=15.8/48187,48359,crf=15.8/53862,54650,crf=15.8/56484,56900,crf=15.8/62537,62637,crf=15.8/62696,62737,crf=16/63118,63629,crf=15.8/65040,65103,crf=13/65158,65327,crf=16/65390,65490,crf=16/65536,65957,crf=16/65957,65973,crf=15.5/65980,66298,crf=16.5/66299,66349,crf=15.5/66546,66561,crf=15.5/66687,66707,crf=15.5/66855,66872,crf=14/66977,67081,crf=15.5/67097,68499,crf=15.5/68646,69144,crf=15.8/69218,69236,crf=15.8/69250,69274,crf=15.8/69490,69557,crf=15.8/69601,69690,crf=15.8/69726,69845,crf=15.8/69922,69949,crf=15.8/69959,70420,crf=15.8/71627,73019,crf=15.8/73020,73033,crf=14/73034,73179,crf=15.8/73180,73265,crf=14/73266,74915,crf=15.8/75331,76376,crf=15.8/76377,76425,crf=14/76426,76458,crf=16/76459,76631,crf=15/76687,76890,crf=15/76891,77065,crf=16/77066,77140,crf=15/77141,77297,crf=16/77298,77342,crf=15/77343,77519,crf=16/77520,77612,crf=15.5/77613,77648,crf=16/77649,77805,crf=15/77806,77875,crf=16/77876,77937,crf=15.5/79009,79158,crf=15.8/79498,79580,crf=15.8/92038,92596,crf=15.5/92597,92769,crf=13/92770,93137,crf=15.5/93138,93178,crf=15/93179,94443,crf=15.5/94700,94717,crf=15.5/95930,95998,crf=15.8/96994,97781,crf=16.5/98905,100787,crf=15.8/100788,100834,crf=13/100835,100866,crf=15.8/104178,104929,crf=15.8/108193,108563,crf=16.5/109965,110051,crf=16/110103,110137,crf=16/110197,110275,crf=16/110329,111098,crf=15.5/112679,112919,crf=15/112946,112969,crf=15/113077,113100,crf=15/113142,113819,crf=15/114049,114146,crf=14/114178,114195,crf=15/114604,114697,crf=15/114738,114800,crf=15/114896,115006,crf=15/115059,115086,crf=15/115182,115217,crf=15/115282,115350,crf=15/115376,115398,crf=15/115540,115595,crf=15.5/115800,115947,crf=15.5/116044,118017,crf=16.5/118018,118269,crf=15.5/118330,118346,crf=13/118400,118476,crf=15/118506,118542,crf=15/118788,119132,crf=15.8/119437,119451,crf=16.5/119919,119947,crf=15.5/120462,120492,crf=13/120920,121838,crf=16.5/121895,122329,crf=15.8/127519,127575,crf=15.8/127624,127704,crf=15.8/127895,127997,crf=15.8/128198,128348,crf=15.8/128853,128955,crf=15.8/129228,130336,crf=15.8/130623,130660,crf=15.8/133205,133227,crf=16/133262,133332,crf=15.5/135252,135458,crf=16.5/136865,140763,crf=16.5/140764,141308,crf=15.8/141500,146837,crf=16.5/148989,149530,crf=15.8/149665,149806,crf=15.8/150025,150115,crf=15.8/150161,150298,crf=15.8/150351,150538,crf=15.8/150596,150773,crf=15.8/151149,151255,crf=15.8/155089,156780,crf=15.8/157852,158309,crf=15.8/158404,158461,crf=15.8/158691,158919,crf=15.8/159133,159320,crf=15.8/159830,160460,crf=15/161173,161220,crf=16.5/162318,162382,crf=16.5/162937,163051,crf=16.5/165773,166224,crf=15.8/166369,166943,crf=15.8/167192,167315,crf=15.8/167192,167315,crf=15.8/167805,168053,crf=15.8/168054,168156,crf=15/169180,169255,crf=16/171155,174263,crf=16.5/174264,174396,crf=15.8/175625,175653,crf=15.8/175704,175747,crf=15.8/176293,176344,crf=15.8/177528,177622,crf=15.8/177714,177792,crf=16.5/177939,178034,crf=14/178039,178079,crf=15.8/178414,178454,crf=14/178684,178779,crf=15.8/178803,178849,crf=13/180162,180253,crf=14/180368,180406,crf=15.8/182907,185070,crf=15.8/178684,178779,crf=15.8/182532,182544,crf=15.5/182907,185070,crf=16.5/185216,186331,crf=16.5/186446,186482,crf=15.8/188144,188222,crf=15.5/201210,201361,crf=15.5/201370,210760,crf=22/212202,212305,crf=15.5
Language : English
Default : Yes
Forced : No
DURATION : 02:27:41.937000000
NUMBER_OF_FRAMES : 212474
NUMBER_OF_BYTES : 13916524031
_STATISTICS_WRITING_APP : mkvmerge v9.4.0 ('Knurl') 32bit
_STATISTICS_WRITING_DATE_UTC : 2016-09-11 09:32:14
_STATISTICS_TAGS : BPS DURATION NUMBER_OF_FRAMES NUMBER_OF_BYTES
Matrix coefficients : BT.709-5, BT.1361, IEC 61966-2-4 709, SMPTE RP177
Audio #2
ID : 2
Format : AC-3
Format/Info : Audio Coding 3
Mode extension : CM (complete main)
Format settings, Endianness : Big
Codec ID : A_AC3
Duration : 2h 27mn
Bit rate mode : Constant
Bit rate : 384 Kbps
Channel(s) : 6 channels
Channel positions : Front: L C R, Side: L R, LFE
Sampling rate : 48.0 KHz
Bit depth : 16 bits
Compression mode : Lossy
Stream size : 406 MiB (3%)
Title : Czech AC3 5.1 ~384Kbps
Language : Czech
Default : Yes
Forced : No
Audio #3
ID : 3
Format : DTS
Format/Info : Digital Theater Systems
Codec ID : A_DTS
Duration : 2h 27mn
Bit rate mode : Constant
Bit rate : 1 510 Kbps
Channel(s) : 6 channels
Channel positions : Front: L C R, Side: L R, LFE
Sampling rate : 48.0 KHz
Bit depth : 24 bits
Compression mode : Lossy
Stream size : 1.56 GiB (10%)
Title : English DTS 5.1 ~1509Kbps
Language : English
Default : No
Forced : No
Text #4
ID : 4
Format : UTF-8
Codec ID : S_TEXT/UTF8
Codec ID/Info : UTF-8 Plain Text
Title : Czech FORCED
Language : Czech
Default : Yes
Forced : Yes
Text #5
ID : 5
Format : UTF-8
Codec ID : S_TEXT/UTF8
Codec ID/Info : UTF-8 Plain Text
Title : Czech Subtitles
Language : Czech
Default : No
Forced : No
Jazyk : CZ Dabing



Obrázok
Obrázok
Odkaz na stiahnutie:
Pre zobrazenie odkazov sa musíte alebo


Späť na HD Movie - Zahraničné filmy

Kto je on-line

Užívatelia prezerajúci fórum: Žiadny registrovaný užívateľ nie je prítomný a 0 hostia

cron