Chappaquiddick (2017)

Filmy v HD formáte, bez dabingu a ostatné zahraničné filmy
Luky753
Začiatočník
Začiatočník
 
Príspevky: 32
Registrovaný: Ned Nov 13, 2016 3:22 pm
Poďakoval: 0 krát
Poďakovali mi: 0 krát

Chappaquiddick (2017)

Poslaťod Luky753 » Štv Nov 08, 2018 11:21 pm

ponte píše:Obrázok

Chappaquiddick (2017)

Životopisný / Drama / Historický

USA, 2017, 107 min

Režie: John Curran
Scénář: Taylor Allen, Andrew Logan
Kamera: Maryse Alberti
Hudba: Garth Stevenson
Hrají: Kate Mara, Jason Clarke, Clancy Brown, Olivia Thirlby, Ed Helms, Bruce Dern, Jim Gaffigan, Taylor Nichols, John Fiore, Andria Blackman, Victor Warren, Lexie Roth
Producenti: Mark Ciardi, Chris Cowles, Chris Fenton
Střih: Keith Fraase
Scénografie: John P. Goldsmith

Senátor Ted Kennedy (Jason Clarke) z vlivného politického klanu sjel se svým vozem do vody u ostrova Chappaquiddick. Jeho spolujezdkyně, asistentka Mary Jo Kopechne (Kate Mara) se v autě ocitla v pasti a utopila se. Kennedy tehdy nezavolal policii, jel do hotelu, kde se opil, snažil se vytvořit si alibi s pomocí svého otce a zachránit tak svoji politickou kariéru.

Odkaz na stiahnutie:
Pre zobrazenie odkazov sa musíte alebo


Format : Matroska
Format version : Version 4
File size : 2.03 GiB
Duration : 1 h 46 min
Overall bit rate : 2 724 kb/s

Video
Format : AVC
Format/Info : Advanced Video Codec
Format profile : High@L4.1
Format settings : CABAC / 4 Ref Frames
Format settings, CABAC : Yes
Format settings, ReFrames : 4 frames
Codec ID : V_MPEG4/ISO/AVC
Duration : 1 h 46 min
Bit rate : 2 500 kb/s
Width : 1 920 pixels
Height : 808 pixels

Display aspect ratio : 2.40:1
Frame rate mode : Constant
Frame rate : 23.976 (23976/1000) FPS

Audio
Format : AAC LC
Format/Info : Advanced Audio Codec Low Complexity
Codec ID : A_AAC-2
Duration : 1 h 46 min
Bit rate : 224 kb/s
Channel(s) : 6 channels
Channel layout : C L R Ls Rs LFE
Sampling rate : 48.0 kHz
Frame rate : 46.875 FPS (1024 SPF)
Compression mode : Lossy
Delay relative to video : -43 ms
Stream size : 171 MiB (8%)
Language : English

Text
ID : 3
Format : UTF-8
Codec ID : S_TEXT/UTF8
Codec ID/Info : UTF-8 Plain Text
Duration : 1 h 40 min
Bit rate : 75 b/s
Count of elements : 1483
Stream size : 55.5 KiB (0%)
Language : Czech

Odkaz na stiahnutie:
Pre zobrazenie odkazov sa musíte alebo

Späť na HD Movie - Zahraničné filmy

Kto je on-line

Užívatelia prezerajúci fórum: Žiadny registrovaný užívateľ nie je prítomný a 0 hostia