Duch ve stroji / Ghost in the Shell (2017)

Filmy v HD formáte, dabované zahraničné filmy, slovenská a česká produkcia
Sonty
Top Prispievateľ
Top Prispievateľ
 
Príspevky: 253
Registrovaný: Ned Jún 08, 2008 12:41 pm
Poďakoval: 0 krát
Poďakovali mi: 20 krát

Duch ve stroji / Ghost in the Shell (2017)

Poslaťod Sonty » Str Feb 12, 2020 7:44 pm

Duch ve stroji / Ghost in the Shell (2017)

Video/Zdroj: BluRay 1080p
Audio: CZ AC-3 5.1ch, EN DTS 5.1ch
Titulky: CZ, CZ forced, SK


Obrázok

CSFD / IMDB
Odkaz na stiahnutie:
Pre zobrazenie odkazov sa musíte alebo


INFO
Format : Matroska
Format version : Version 2
File size : 15.2 GiB
Duration : 1 h 46 min
Overall bit rate : 20.3 Mb/s

Video
Format : AVC
Format profile : High@L4.1
Duration : 1 h 46 min
Bit rate : 18.1 Mb/s
Width : 1 920 pixels
Height : 1 080 pixels
Display aspect ratio : 16:9
Frame rate mode : Constant
Frame rate : 23.976 (24000/1001) FPS
Color space : YUV
Chroma subsampling : 4:2:0
Bit depth : 8 bits
Scan type : Progressive
Bits/(Pixel*Frame) : 0.365
Stream size : 13.5 GiB (89%)

Audio #1
Format : AC-3
Duration : 1 h 46 min
Bit rate mode : Constant
Bit rate : 640 kb/s
Channel(s) : 6 channels
Channel positions : Front: L C R, Side: L R, LFE
Sampling rate : 48.0 kHz
Frame rate : 31.250 FPS (1536 SPF)
Bit depth : 16 bits
Compression mode : Lossy
Stream size : 490 MiB (3%)
Language : Czech
Default : Yes
Forced : No

Audio #2
Format : DTS
Duration : 1 h 46 min
Bit rate mode : Constant
Bit rate : 1 509 kb/s
Channel(s) : 6 channels
Channel positions : Front: L C R, Side: L R, LFE
Sampling rate : 48.0 kHz
Frame rate : 93.750 FPS (512 SPF)
Bit depth : 24 bits
Compression mode : Lossy
Stream size : 1.13 GiB (7%)
Language : English
Default : No
Forced : No

Text #1
Format : UTF-8
Language : Czech
Default : Yes
Forced : Yes

Text #2
Format : UTF-8
Language : Czech
Default : No
Forced : No

Text #3
Format : UTF-8
Language : Slovak
Default : No
Forced : No

Text #4
Format : ASS
Language : Czech
Default : No
Forced : Yes

Text #5
Format : ASS
Language : Czech
Default : No
Forced : No

Text #6
Format : ASS
Language : Slovak
Default : No
Forced : No


FASTSHARE

Odkaz na stiahnutie:
Pre zobrazenie odkazov sa musíte alebo


Odkaz na stiahnutie:
Pre zobrazenie odkazov sa musíte alebo


Bez hesla. Balené bez kompresie. Pridaný záznam pre opravu dát 5%.

Späť na HD Movie - SK/CZ Filmy

Kto je on-line

Užívatelia prezerajúci fórum: Žiadny registrovaný užívateľ nie je prítomný a 3 hostia