Emoji ve filmu / The Emoji Movie (2017)

Rozprávky a animované filmy ( iba SK a CZ dabing! )
L0K0M0T1V
Prispievateľ
Prispievateľ
 
Príspevky: 158
Registrovaný: Str Aug 17, 2016 2:33 pm
Poďakoval: 0 krát
Poďakovali mi: 111 krát

Emoji ve filmu / The Emoji Movie (2017)

Poslaťod L0K0M0T1V » Ned Dec 03, 2017 3:22 am

Emoji ve filmu / The Emoji Movie / 2017


The.Emoji.Movie.2017.BRRip.x264.CZ.SK
The.Emoji.Movie.2017.480p.BRRip.XViD.CZ.SK
The.Emoji.Movie.2017.720p.BRRip.XViD.CZ.SK


Audio:Czech, Slovak
Subtitles: -

Obrázok

Info:
Odkaz na stiahnutie:
Pre zobrazenie odkazov sa musíte alebo


The.Emoji.Movie.2017.BRRip.x264.CZ.SK
Odkaz na stiahnutie:
Pre zobrazenie odkazov sa musíte alebo


Odkaz na stiahnutie:
Pre zobrazenie odkazov sa musíte alebo




**********



The.Emoji.Movie.2017.480p.BRRip.XViD.CZ.SK
Odkaz na stiahnutie:
Pre zobrazenie odkazov sa musíte alebo


Odkaz na stiahnutie:
Pre zobrazenie odkazov sa musíte alebo




**********



The.Emoji.Movie.2017.720p.BRRip.XViD.CZ.SK
Odkaz na stiahnutie:
Pre zobrazenie odkazov sa musíte alebo


Odkaz na stiahnutie:
Pre zobrazenie odkazov sa musíte alebo
V případě že ukazuje po stažení souboru z FS u souboru 0MB je to způsobeno že to stahujete přes volné stahování, soubory jsou v pořádku a při stažení přes kredit je i velikost těchto souborů v pořádku

rybar
Gold User
Gold User
 
Príspevky: 1222
Registrovaný: Str Okt 29, 2008 11:04 pm
Poďakoval: 64 krát
Poďakovali mi: 830 krát

Re: Emoji ve filmu / The Emoji Movie (2017)

Poslaťod rybar » Ned Dec 03, 2017 6:36 am

Emoji ve filmu / The Emoji Movie (2017)

CSFD:

Odkaz na stiahnutie:
Pre zobrazenie odkazov sa musíte alebo


Obrázok

The.Emoji.Movie.2017.BDRip.XviD.MP3.CZ.SK
The.Emoji.Movie.2017.480p.BDRip.XviD.AC3.DD5.1.CZ.SK
The.Emoji.Movie.2017.720p.BDRip.XviD.AC3.DD5.1.CZ.SK


The.Emoji.Movie.2017.BDRip.XviD.MP3.CZ.SK
Jazyk: Czech , Slovak
Subtitles: Ne

iNFO

Odkaz na stiahnutie:
Pre zobrazenie odkazov sa musíte alebo


Obrázok
Odkaz na stiahnutie:
Pre zobrazenie odkazov sa musíte alebo

The.Emoji.Movie.2017.480p.BDRip.XviD.AC3.DD5.1.CZ.SK

iNFO

Odkaz na stiahnutie:
Pre zobrazenie odkazov sa musíte alebo


Obrázok
Odkaz na stiahnutie:
Pre zobrazenie odkazov sa musíte alebo

The.Emoji.Movie.2017.720p.BDRip.XviD.AC3.DD5.1.CZ.SK

iNFO

Odkaz na stiahnutie:
Pre zobrazenie odkazov sa musíte alebo


Obrázok
Odkaz na stiahnutie:
Pre zobrazenie odkazov sa musíte alebo

vratkodemarko
Excellent User
Excellent User
 
Príspevky: 986
Registrovaný: Pia Feb 17, 2012 3:03 pm
Poďakoval: 3 krát
Poďakovali mi: 106 krát

Re: Emoji ve filmu / The Emoji Movie (2017)

Poslaťod vratkodemarko » Ned Dec 03, 2017 7:37 pm

Obrázok


Obrázok
Odkaz na stiahnutie:
Pre zobrazenie odkazov sa musíte alebo


Obrázok
D:\prenos\The.Emoji.Movie.2017.BDRip.x264.CZ.SK-TreZzoR\The.Emoji.Movie.2017.BDRip.x264.CZ.SK-TreZzoR.mkv
General
Unique ID : 250401481614827116033552723202908075039 (0xBC6192374922642AB49580CC57D7B41F)
Complete name : D:\prenos\The.Emoji.Movie.2017.BDRip.x264.CZ.SK-TreZzoR\The.Emoji.Movie.2017.BDRip.x264.CZ.SK-TreZzoR.mkv
Format : Matroska
Format version : Version 2
File size : 1.17 GiB
Duration : 1h 26mn
Overall bit rate : 1 942 Kbps
Movie name : No1
Encoded date : UTC 2017-12-01 17:11:16
Writing application : mkvmerge v17.0.0 ('Be Ur Friend') 64-bit
Writing library : libebml v1.3.5 + libmatroska v1.4.8
DURATION : 01:26:22.208000000
NUMBER_OF_FRAMES : 161944
NUMBER_OF_BYTES : 290203648
_STATISTICS_WRITING_APP : mkvmerge v17.0.0 ('Be Ur Friend') 64-bit
_STATISTICS_WRITING_DATE_UTC : 2017-12-01 17:11:16
_STATISTICS_TAGS : BPS DURATION NUMBER_OF_FRAMES NUMBER_OF_BYTES
Video #1
ID : 1
Format : AVC
Format/Info : Advanced Video Codec
Format profile : High@L4.1
Format settings, CABAC : Yes
Format settings, ReFrames : 16 frames
Codec ID : V_MPEG4/ISO/AVC
Duration : 1h 26mn
Bit rate : 1 007 Kbps
Width : 720 pixels
Height : 300 pixels
Display aspect ratio : 2.40:1
Frame rate : 23.976 fps
Color space : YUV
Chroma subsampling : 4:2:0
Bit depth : 8 bits
Scan type : Progressive
Bits/(Pixel*Frame) : 0.194
Stream size : 622 MiB (52%)
Title : TreZzoR
Writing library : x264 core 142 r2431+42 c69a006 tMod [8-bit@all X86_64]
Encoding settings : cabac=1 / ref=16 / deblock=1:-3:-3 / analyse=0x3:0x133 / me=umh / subme=9 / psy=1 / fade_compensate=0.00 / psy_rd=0.85:0.00 / mixed_ref=1 / me_range=24 / chroma_me=1 / trellis=2 / 8x8dct=1 / cqm=0 / deadzone=21,11 / fast_pskip=0 / chroma_qp_offset=-2 / threads=6 / lookahead_threads=1 / sliced_threads=0 / nr=0 / decimate=0 / interlaced=0 / bluray_compat=0 / constrained_intra=0 / fgo=0 / bframes=8 / b_pyramid=2 / b_adapt=2 / b_bias=0 / direct=3 / weightb=1 / open_gop=0 / weightp=2 / keyint=250 / keyint_min=23 / scenecut=40 / intra_refresh=0 / rc=crf / mbtree=0 / crf=19.0000 / qcomp=0.70 / qpmin=0:0:0 / qpmax=69:69:69 / qpstep=4 / ip_ratio=1.30 / pb_ratio=1.20 / aq=3:0.90 / aq-sensitivity=10.00 / aq-factor=1.00:1.00:1.00 / aq2=0 / aq3=0
Language : Hungarian
Default : Yes
Forced : No
DURATION : 01:26:22.177000000
NUMBER_OF_FRAMES : 124248
NUMBER_OF_BYTES : 676167141
_STATISTICS_WRITING_APP : mkvmerge v17.0.0 ('Be Ur Friend') 64-bit
_STATISTICS_WRITING_DATE_UTC : 2017-12-01 17:11:16
_STATISTICS_TAGS : BPS DURATION NUMBER_OF_FRAMES NUMBER_OF_BYTES
Matrix coefficients : BT.709-5, BT.1361, IEC 61966-2-4 709, SMPTE RP177
Audio #2
ID : 2
Format : AC-3
Format/Info : Audio Coding 3
Mode extension : CM (complete main)
Format settings, Endianness : Big
Codec ID : A_AC3
Duration : 1h 26mn
Bit rate mode : Constant
Bit rate : 448 Kbps
Channel(s) : 6 channels
Channel positions : Front: L C R, Side: L R, LFE
Sampling rate : 48.0 KHz
Bit depth : 16 bits
Compression mode : Lossy
Stream size : 277 MiB (23%)
Language : Czech
Default : Yes
Forced : No
Audio #3
ID : 3
Format : AC-3
Format/Info : Audio Coding 3
Mode extension : CM (complete main)
Format settings, Endianness : Big
Codec ID : A_AC3
Duration : 1h 26mn
Bit rate mode : Constant
Bit rate : 448 Kbps
Channel(s) : 6 channels
Channel positions : Front: L C R, Side: L R, LFE
Sampling rate : 48.0 KHz
Bit depth : 16 bits
Compression mode : Lossy
Stream size : 277 MiB (23%)
Language : Slovak
Default : No
Forced : No
Jazyk : CZ Dabing



Obrázok
Obrázok
Odkaz na stiahnutie:
Pre zobrazenie odkazov sa musíte alebo

fajfo
Top Prispievateľ
Top Prispievateľ
 
Príspevky: 296
Registrovaný: Pon Apr 28, 2008 10:05 pm
Poďakoval: 3 krát
Poďakovali mi: 139 krát

Re: Emoji ve filmu / The Emoji Movie (2017)

Poslaťod fajfo » Ned Dec 03, 2017 10:48 pm

Emoji ve filmu / The Emoji Movie CZ/SK

Obrázok

Obrázok

Odkaz na stiahnutie:
Pre zobrazenie odkazov sa musíte alebo



Kvalita

Odkaz na stiahnutie:
Pre zobrazenie odkazov sa musíte alebo


DOWNLOAD

Obrázok
Odkaz na stiahnutie:
Pre zobrazenie odkazov sa musíte alebo


Späť na Movie - Rozprávky a animované filmy

Kto je on-line

Užívatelia prezerajúci fórum: Žiadny registrovaný užívateľ nie je prítomný a 4 hostia