Emoji ve filmu / The Emoji Movie (2017)

Filmy v HD formáte, rozprávky a animované filmy ( iba SK a CZ dabing! )
rybar
Gold User
Gold User
 
Príspevky: 1222
Registrovaný: Str Okt 29, 2008 11:04 pm
Poďakoval: 64 krát
Poďakovali mi: 830 krát

Emoji ve filmu / The Emoji Movie (2017)

Poslaťod rybar » Ned Dec 03, 2017 9:40 am

Emoji ve filmu / The Emoji Movie (2017)

CSFD:

Odkaz na stiahnutie:
Pre zobrazenie odkazov sa musíte alebo


Obrázok

The.Emoji.Movie.2017.720p.BluRay.x264.DD5.1.CZ.SK
The.Emoji.Movie.2017.1080p.BluRay.x264.DD5.1.CZ.SK


The.Emoji.Movie.2017.720p.BluRay.x264.DD5.1.CZ.SK
Jazyk: Czech 5.1 640 Kbps , Slovak 5.1 640 Kbps , English 5.1 640 Kbps
Subtitles: Czech , English

iNFO

Odkaz na stiahnutie:
Pre zobrazenie odkazov sa musíte alebo


Obrázok
Odkaz na stiahnutie:
Pre zobrazenie odkazov sa musíte alebo

Odkaz na stiahnutie:
Pre zobrazenie odkazov sa musíte alebo

Přidán záznam na opravu dat 5%.
The.Emoji.Movie.2017.1080p.BluRay.x264.DD5.1.CZ.SK
Jazyk: Czech 5.1 640 Kbps , Slovak 5.1 640 Kbps , English 5.1 640 Kbps
Subtitles: Czech , English

iNFO

Odkaz na stiahnutie:
Pre zobrazenie odkazov sa musíte alebo


Obrázok
Odkaz na stiahnutie:
Pre zobrazenie odkazov sa musíte alebo

Odkaz na stiahnutie:
Pre zobrazenie odkazov sa musíte alebo

Přidán záznam na opravu dat 5%.

vratkodemarko
Excellent User
Excellent User
 
Príspevky: 986
Registrovaný: Pia Feb 17, 2012 3:03 pm
Poďakoval: 3 krát
Poďakovali mi: 106 krát

Re: Emoji ve filmu / The Emoji Movie (2017)

Poslaťod vratkodemarko » Pon Dec 04, 2017 4:07 am

Obrázok


Obrázok
Odkaz na stiahnutie:
Pre zobrazenie odkazov sa musíte alebo


Obrázok
D:\prenos\The.Emoji.Movie.2017.CZ.SK.1080p.BluRay.x264.DD5.1-BST.mkv
General
Unique ID : 244841900237580880881265008608625179931 (0xB832D5B0EB5171FBAA32B5C3CCAA3D1B)
Complete name : D:\prenos\The.Emoji.Movie.2017.CZ.SK.1080p.BluRay.x264.DD5.1-BST.mkv
Format : Matroska
Format version : Version 4 / Version 2
File size : 8.23 GiB
Duration : 1h 26mn
Overall bit rate : 13.6 Mbps
Movie name : The.Emoji.Movie.2017.CZ.SK.1080p.BluRay.x264.DD5.1-BST
Encoded date : UTC 2017-12-03 02:11:55
Writing application : mkvmerge v16.0.0 ('Protest') 64-bit
Writing library : libebml v1.3.5 + libmatroska v1.4.8
DURATION : 01:25:14.359000000
NUMBER_OF_FRAMES : 1159
NUMBER_OF_BYTES : 35484
_STATISTICS_WRITING_APP : mkvmerge v16.0.0 ('Protest') 64-bit
_STATISTICS_WRITING_DATE_UTC : 2017-12-03 02:11:55
_STATISTICS_TAGS : BPS DURATION NUMBER_OF_FRAMES NUMBER_OF_BYTES
Video #6
ID : 6
Format : AVC
Format/Info : Advanced Video Codec
Format profile : High@L4.1
Format settings, CABAC : Yes
Format settings, ReFrames : 5 frames
Codec ID : V_MPEG4/ISO/AVC
Duration : 1h 26mn
Bit rate : 11.4 Mbps
Width : 1 920 pixels
Height : 804 pixels
Display aspect ratio : 2.40:1
Frame rate : 23.976 fps
Color space : YUV
Chroma subsampling : 4:2:0
Bit depth : 8 bits
Scan type : Progressive
Bits/(Pixel*Frame) : 0.309
Stream size : 6.90 GiB (84%)
Title : The.Emoji.Movie.2017.1080p.BluRay.DD5.1.x264-No1
Writing library : x264 core 152 r2851 ba24899
Encoding settings : cabac=1 / ref=5 / deblock=1:-3:-3 / analyse=0x3:0x133 / me=umh / subme=11 / psy=1 / psy_rd=0.90:0.00 / mixed_ref=1 / me_range=32 / chroma_me=1 / trellis=2 / 8x8dct=1 / cqm=0 / deadzone=21,11 / fast_pskip=0 / chroma_qp_offset=-2 / threads=6 / lookahead_threads=1 / sliced_threads=0 / nr=0 / decimate=0 / interlaced=0 / bluray_compat=0 / constrained_intra=0 / bframes=16 / b_pyramid=2 / b_adapt=2 / b_bias=0 / direct=3 / weightb=1 / open_gop=0 / weightp=2 / keyint=250 / keyint_min=23 / scenecut=40 / intra_refresh=0 / rc_lookahead=250 / rc=crf / mbtree=0 / crf=15.5 / qcomp=0.65 / qpmin=0 / qpmax=69 / qpstep=4 / vbv_maxrate=62500 / vbv_bufsize=78125 / crf_max=0.0 / nal_hrd=none / filler=0 / ip_ratio=1.30 / pb_ratio=1.20 / aq=3:0.85
Language : English
Default : Yes
Forced : Yes
Audio #1
ID : 1
Format : AC-3
Format/Info : Audio Coding 3
Mode extension : CM (complete main)
Format settings, Endianness : Big
Codec ID : A_AC3
Duration : 1h 26mn
Bit rate mode : Constant
Bit rate : 640 Kbps
Channel(s) : 6 channels
Channel positions : Front: L C R, Side: L R, LFE
Sampling rate : 48.0 KHz
Bit depth : 16 bits
Compression mode : Lossy
Stream size : 395 MiB (5%)
Language : Czech
Default : Yes
Forced : Yes
DURATION : 01:26:22.177000000
NUMBER_OF_FRAMES : 124248
NUMBER_OF_BYTES : 7587002444
_STATISTICS_WRITING_APP : mkvmerge v16.0.0 ('Protest') 64-bit
_STATISTICS_WRITING_DATE_UTC : 2017-12-03 02:11:55
_STATISTICS_TAGS : BPS DURATION NUMBER_OF_FRAMES NUMBER_OF_BYTES
Audio #2
ID : 2
Format : AC-3
Format/Info : Audio Coding 3
Mode extension : CM (complete main)
Format settings, Endianness : Big
Codec ID : A_AC3
Duration : 1h 26mn
Bit rate mode : Constant
Bit rate : 640 Kbps
Channel(s) : 6 channels
Channel positions : Front: L C R, Side: L R, LFE
Sampling rate : 48.0 KHz
Bit depth : 16 bits
Compression mode : Lossy
Stream size : 395 MiB (5%)
Language : Slovak
Default : No
Forced : No
Audio #3
ID : 3
Format : AC-3
Format/Info : Audio Coding 3
Mode extension : CM (complete main)
Format settings, Endianness : Big
Codec ID : A_AC3
Duration : 1h 26mn
Bit rate mode : Constant
Bit rate : 640 Kbps
Channel(s) : 6 channels
Channel positions : Front: L C R, Side: L R, LFE
Sampling rate : 48.0 KHz
Bit depth : 16 bits
Compression mode : Lossy
Stream size : 395 MiB (5%)
Language : English
Default : No
Forced : No
Text #4
ID : 4
Format : UTF-8
Codec ID : S_TEXT/UTF8
Codec ID/Info : UTF-8 Plain Text
Language : Czech
Default : No
Forced : No
Text #5
ID : 5
Format : UTF-8
Codec ID : S_TEXT/UTF8
Codec ID/Info : UTF-8 Plain Text
Language : English
Default : No
Forced : No
Jazyk : CZ Dabing



Obrázok
Obrázok
Odkaz na stiahnutie:
Pre zobrazenie odkazov sa musíte alebo


Späť na HD Movie - Rozprávky a animované filmy

Kto je on-line

Užívatelia prezerajúci fórum: Žiadny registrovaný užívateľ nie je prítomný a 0 hostia