Home Alone 2: Lost in New York (1992)

Filmy v HD formáte, bez dabingu a ostatné zahraničné filmy
Sonty
Top Prispievateľ
Top Prispievateľ
 
Príspevky: 284
Registrovaný: Ned Jún 08, 2008 12:41 pm
Poďakoval: 0 krát
Poďakovali mi: 20 krát

Home Alone 2: Lost in New York (1992)

Poslaťod Sonty » Str Mar 18, 2020 11:27 pm

Home Alone 2: Lost in New York (1992)

Video/Zdroj: BluRay 1080p
Audio: EN DTS 5.1ch
Titulky: EN, DA, FI, NO, SV


Obrázok

CSFD / IMDB
Odkaz na stiahnutie:
Pre zobrazenie odkazov sa musíte alebo


INFO
Format : Matroska
Format version : Version 2
File size : 8.74 GiB
Duration : 2 h 0 min
Overall bit rate : 10.4 Mb/s

Video
Format : AVC
Format profile : High@L4.1
Duration : 2 h 0 min
Bit rate : 8 921 kb/s
Width : 1 920 pixels
Height : 1 040 pixels
Display aspect ratio : 1.85:1
Frame rate mode : Constant
Frame rate : 23.976 FPS
Color space : YUV
Chroma subsampling : 4:2:0
Bit depth : 8 bits
Scan type : Progressive
Bits/(Pixel*Frame) : 0.186
Stream size : 7.31 GiB (84%)

Audio
Format : DTS
Duration : 2 h 0 min
Bit rate mode : Constant
Bit rate : 1 509 kb/s
Channel(s) : 6 channels
Channel positions : Front: L C R, Side: L R, LFE
Sampling rate : 48.0 kHz
Frame rate : 93.750 FPS (512 spf)
Bit depth : 24 bits
Compression mode : Lossy
Stream size : 1.27 GiB (14%)

Text #1
Format : UTF-8
Default : Yes
Forced : No

Text #2
Format : UTF-8
Language : Danish
Default : No
Forced : No

Text #3
Format : UTF-8
Language : Finnish
Default : No
Forced : No

Text #4
Format : UTF-8
Language : Norwegian
Default : No
Forced : No

Text #5
Format : UTF-8
Language : Swedish
Default : No
Forced : No


FASTSHARE

Odkaz na stiahnutie:
Pre zobrazenie odkazov sa musíte alebo


Odkaz na stiahnutie:
Pre zobrazenie odkazov sa musíte alebo


Bez hesla. Balené bez kompresie. Pridaný záznam pre opravu dát 5%.

Späť na HD Movie - Zahraničné filmy

Kto je on-line

Užívatelia prezerajúci fórum: Žiadny registrovaný užívateľ nie je prítomný a 3 hostia