Království lesních strážců / Epic (2013) / 1080p

Filmy v HD formáte, rozprávky a animované filmy ( iba SK a CZ dabing! )
Thorik
Prispievateľ
Prispievateľ
 
Príspevky: 93
Registrovaný: Pon Apr 12, 2010 4:32 pm
Poďakoval: 1 krát
Poďakovali mi: 123 krát

Království lesních strážců / Epic (2013) / 1080p

Poslaťod Thorik » Ned Okt 19, 2014 1:15 pm

Království lesních strážců_1080p.BluRay_DTS_(CZ,SK,ENG)

Obrázok

Info:
Odkaz na stiahnutie:
Pre zobrazenie odkazov sa musíte alebo


Bystrá, statečná a tvrdohlavá dívka, taková je sedmnáctiletá Mary, která prožije dobrodružství, o jakém se jí nezdálo ani v nejdivočejším snu! Po návratu do rodného domu se snaží sblížit se svým otcem Bombou, který se jí odcizil. Svérázný a roztržitý profesor Bomba je posedlý zkoumáním pozoruhodné civilizace drobných lesních mužíčků žijících v lesích. Mary dochází trpělivost. Poté, co se kouzlem ocitne v tomto podivném lesním společenství, je ovšem nucena svůj pohled přehodnotit. Pokud se chce dostat zpátky domů, musí partičce zábavných zelených postaviček pomoci, uvěřit v jejich tajuplný svět a zachránit ho. Boj o záchranu lesa se však promění v boj o náš lidský svět. Díky odvaze, kterou Mary prokáže, získá nejen nazpět svého otce Bombu, ale i nové přátele. Královnu lesa - krásnou, bystrou a silnou Taru, která vždy panuje s úctou a vtipem. Obří housenku Nim Galů, známou svou vášní pro večírky, které rovněž nechybí moudrost a praktičnost. Komediální duo hlemýždě a slimáka Hňupa a Hruba, přičemž Hrub se považuje za největšího lamače dámských srdcí v lese. Ostříleného bojovníka Ronina, šéfa elitní lesní jednotky, muže s ostře řezanou tváří a suchým humorem, ochotného za svou královnu položit i život.


Info Video:


Format : Matroska
Format version : Version 4 / Version 2
File size : 9.90 GiB
Duration : 1h 42mn
Overall bit rate : 13.8 Mbps
Encoded date : UTC 2014-10-19 08:55:13
Writing application : mkvmerge v6.8.0 ('Theme for Great Cities') 32bit built on Mar 2 2014 21:27:07
Writing library : libebml v1.3.0 + libmatroska v1.4.1

Video
ID : 1
Format : AVC
Format/Info : Advanced Video Codec
Format profile : High@L4.2
Format settings, CABAC : Yes
Format settings, ReFrames : 4 frames
Codec ID : V_MPEG4/ISO/AVC
Duration : 1h 42mn
Bit rate : 11.5 Mbps
Width : 1 920 pixels
Height : 798 pixels
Display aspect ratio : 2.40:1
Frame rate mode : Constant
Frame rate : 23.976 fps
Color space : YUV
Chroma subsampling : 4:2:0
Bit depth : 8 bits
Scan type : Progressive
Bits/(Pixel*Frame) : 0.313
Stream size : 7.99 GiB (81%)
Language : English
Default : Yes
Forced : No
Color primaries : BT.709
Transfer characteristics : BT.709
Matrix coefficients : BT.709

Audio #1
ID : 2
Format : AC-3
Format/Info : Audio Coding 3
Mode extension : CM (complete main)
Format settings, Endianness : Big
Codec ID : A_AC3
Duration : 1h 42mn
Bit rate mode : Constant
Bit rate : 448 Kbps
Channel(s) : 6 channels
Channel positions : Front: L C R, Side: L R, LFE
Sampling rate : 48.0 KHz
Bit depth : 16 bits
Compression mode : Lossy
Stream size : 328 MiB (3%)
Title : CZ
Language : Czech
Default : Yes
Forced : No

Audio #2
ID : 3
Format : AC-3
Format/Info : Audio Coding 3
Mode extension : CM (complete main)
Format settings, Endianness : Big
Codec ID : A_AC3
Duration : 1h 42mn
Bit rate mode : Constant
Bit rate : 448 Kbps
Channel(s) : 6 channels
Channel positions : Front: L C R, Side: L R, LFE
Sampling rate : 48.0 KHz
Bit depth : 16 bits
Compression mode : Lossy
Stream size : 328 MiB (3%)
Title : SK
Language : Slovak
Default : No
Forced : No

Audio #3
ID : 4
Format : DTS
Format/Info : Digital Theater Systems
Format profile : ES
Mode : 16
Format settings, Endianness : Big
Codec ID : A_DTS
Duration : 1h 42mn
Bit rate mode : Constant
Bit rate : 1 509 Kbps
Channel(s) : 6 channels
Channel positions : Front: L C R, Side: L R, LFE
Sampling rate : 48.0 KHz
Bit depth : 24 bits
Compression mode : Lossy
Stream size : 1.08 GiB (11%)
Title : EN DTS
Language : English
Default : No
Forced : No

Text #1
ID : 5
Format : VobSub
Muxing mode : zlib
Codec ID : S_VOBSUB
Codec ID/Info : The same subtitle format used on DVDs
Title : CZ
Language : Czech
Default : No
Forced : No

Text #2
ID : 6
Format : VobSub
Muxing mode : zlib
Codec ID : S_VOBSUB
Codec ID/Info : The same subtitle format used on DVDs
Title : SK
Language : Slovak
Default : No
Forced : No

Text #3
ID : 7
Format : VobSub
Muxing mode : zlib
Codec ID : S_VOBSUB
Codec ID/Info : The same subtitle format used on DVDs
Title : ENG
Language : English
Default : No
Forced : No


Download:

Sample

Odkaz na stiahnutie:
Pre zobrazenie odkazov sa musíte alebo



Uloz.to

Odkaz na stiahnutie:
Pre zobrazenie odkazov sa musíte alebo


FastShare

Odkaz na stiahnutie:
Pre zobrazenie odkazov sa musíte alebo


Megarapid.cz

Odkaz na stiahnutie:
Pre zobrazenie odkazov sa musíte alebo


Pridaný záznam na opravu dát 10%

Jack86
Top Prispievateľ
Top Prispievateľ
 
Príspevky: 226
Registrovaný: Sob Jan 03, 2009 6:05 pm
Poďakoval: 0 krát
Poďakovali mi: 37 krát

Re: Království lesních strážců / Epic (2013) / 1080p

Poslaťod Jack86 » Pon Apr 11, 2016 11:08 pm

Obrázok


Odkaz na stiahnutie:
Pre zobrazenie odkazov sa musíte alebo



Epic.2013.Repack.BluRay.1080p.DTS.x264-HDWinG

Odkaz na stiahnutie:
Pre zobrazenie odkazov sa musíte alebo



Sample
Odkaz na stiahnutie:
Pre zobrazenie odkazov sa musíte alebo


Odkaz na stiahnutie:
Pre zobrazenie odkazov sa musíte alebo



Upload 3% na opravu dat

no pass

vratkodemarko
Excellent User
Excellent User
 
Príspevky: 986
Registrovaný: Pia Feb 17, 2012 3:03 pm
Poďakoval: 3 krát
Poďakovali mi: 106 krát

Re: Království lesních strážců / Epic (2013) / 1080p

Poslaťod vratkodemarko » Pon Sep 18, 2017 11:37 pm

Obrázok


Obrázok
Odkaz na stiahnutie:
Pre zobrazenie odkazov sa musíte alebo


Obrázok
Veľkosť: 5380 MB
Délka: 01:42:30
Nahrané dňa: 18.09.2017

Video
Rozlíšenie: 1280x530
Codec: H.264 / AVC / MPEG-4 AVC / MPEG-4 part 10
Bitrate: 0kbps
Počet snímok za sekundu: 24

Audio
Codec: ATSC A/52A (AC-3)
Bitrate: 438 kbps
Počet kanálov: 6



Obrázok
Obrázok
Odkaz na stiahnutie:
Pre zobrazenie odkazov sa musíte alebo


Odporučaný SOFT pre sťahovanie Mojich linkov:
Obrázok
Odkaz na stiahnutie:
Pre zobrazenie odkazov sa musíte alebo


Späť na HD Movie - Rozprávky a animované filmy

Kto je on-line

Užívatelia prezerajúci fórum: Žiadny registrovaný užívateľ nie je prítomný a 0 hostia