Man from U.N.C.L.E., The / Krycí jméno U.N.C.L.E. (2015)

Kompletné Blu-ray, Untouched, Remux, Re-Encode
Koudy321
Excellent User
Excellent User
 
Príspevky: 832
Registrovaný: Ned Apr 22, 2012 4:10 pm
Poďakoval: 0 krát
Poďakovali mi: 179 krát

Man from U.N.C.L.E., The / Krycí jméno U.N.C.L.E. (2015)

Poslaťod Koudy321 » Štv Dec 03, 2015 1:27 pm

Krycí jméno U.N.C.L.E. / Man from U.N.C.L.E., The
Untouched / DTS-HD MA 7.1 EN, DD 5.1 CZ / 2015

release : The Man from U.N.C.L.E. (2015) Blu-ray CEE 1080p AVC DD5.1-Gogeta


Odkaz na stiahnutie:
Pre zobrazenie odkazov sa musíte alebo


Obrázok

DISC INFO:

Disc Title: THE_MAN_FROM_UNCLE
Disc Size: 39 234 448 471 bytes
Protection: AACS
BD-Java: No
BDInfo: 0.5.8

PLAYLIST REPORT:

Name: 00100.MPLS
Length: 1:56:29.732 (h:m:s.ms)
Size: 32 883 443 712 bytes
Total Bitrate: 37,64 Mbps

(*) Indicates included stream hidden by this playlist.

VIDEO:

Codec Bitrate Description
----- ------- -----------
MPEG-4 AVC Video 25939 kbps 1080p / 23,976 fps / 16:9 / High Profile 4.1

AUDIO:

Codec Language Bitrate Description
----- -------- ------- -----------
Dolby TrueHD Audio English 4737 kbps 7.1 / 48 kHz / 4737 kbps / 24-bit (AC3 Embedded: 5.1-EX / 48
kHz / 384 kbps / DN -4dB)
Dolby Digital Audio Czech 448 kbps 5.1 / 48 kHz / 448 kbps / DN -4dB
Dolby Digital Audio Hungarian 448 kbps 5.1 / 48 kHz / 448 kbps / DN -4dB
Dolby Digital Audio Polish 448 kbps 5.1 / 48 kHz / 448 kbps / DN -4dB
Dolby Digital Audio Russian 448 kbps 5.1 / 48 kHz / 448 kbps / DN -4dB
Dolby Digital Audio Thai 448 kbps 5.1 / 48 kHz / 448 kbps / DN -4dB
Dolby Digital Audio Turkish 448 kbps 5.1 / 48 kHz / 448 kbps / DN -4dB
* Dolby Digital Audio Japanese 448 kbps 5.1 / 48 kHz / 448 kbps / DN -4dB

SUBTITLES:

Codec Language Bitrate Description
----- -------- ------- -----------
* Presentation Graphics Japanese 20,666 kbps
Presentation Graphics English 29,344 kbps
Presentation Graphics Chinese 24,847 kbps
Presentation Graphics Chinese 24,135 kbps
Presentation Graphics Chinese 23,189 kbps
Presentation Graphics Korean 19,109 kbps
Presentation Graphics Arabic 14,117 kbps
Presentation Graphics Bulgarian 26,717 kbps
Presentation Graphics Croatian 26,825 kbps
Presentation Graphics Czech 25,838 kbps
Presentation Graphics Estonian 22,439 kbps
Presentation Graphics Hebrew 21,251 kbps
Presentation Graphics Hungarian 27,972 kbps
Presentation Graphics Indonesian 28,829 kbps
Presentation Graphics Latvian 24,720 kbps
Presentation Graphics Lithuanian 25,625 kbps
Presentation Graphics Polish 24,286 kbps
Presentation Graphics Portuguese 27,573 kbps
Presentation Graphics Romanian 25,595 kbps
Presentation Graphics Russian 26,968 kbps
Presentation Graphics Slovenian 21,508 kbps
Presentation Graphics Thai 27,574 kbps
Presentation Graphics Turkish 26,716 kbps
* Presentation Graphics Japanese 0,941 kbps
Presentation Graphics Czech 3,471 kbps
Presentation Graphics Hungarian 3,965 kbps
Presentation Graphics Russian 2,991 kbps
Presentation Graphics Thai 2,482 kbps
Presentation Graphics Turkish 3,600 kbps


- vložen záznam pro opravu dat 5%
- možno kombinovat mezi servery
- přidány REV soubory pro obnovu smazaných nebo vadných rarů
- zbyl vám kredit na share-rapid/megarapid - stahujte za něj z file-share.top


Odkaz na stiahnutie:
Pre zobrazenie odkazov sa musíte alebo

Odkaz na stiahnutie:
Pre zobrazenie odkazov sa musíte alebo

Odkaz na stiahnutie:
Pre zobrazenie odkazov sa musíte alebo


HESLO :
bluray

hexadron
Power User
Power User
 
Príspevky: 717
Registrovaný: Uto Aug 25, 2015 12:25 pm
Poďakoval: 0 krát
Poďakovali mi: 107 krát

Re: Man from U.N.C.L.E., The / Krycí jméno U.N.C.L.E. (2015)

Poslaťod hexadron » Štv Dec 03, 2015 6:37 pm

Krycí jméno U.N.C.L.E./ The Man from U.N.C.L.E.(2015)

RELEASE
The Man from U.N.C.L.E. 2015 CEE 1080p Bluray AVC TrueHD 7.1-Gogeta - Untouched
Jazyk: český, anglický, multilanguage (viz BDinfo)
Titulky: české, anglické, multilanguage (viz BDinfo)
Kvalita zvuku: CZ Dolby Digital 5.1 448 kbps, ENG Dolby TrueHD 7.1 4737 kbps
Kvalita videa: 1080pHD 25939 kbps
Rok vydání: 2015
Délka: 116 min.
Žánr: Akční / Dobrodružný / Komedie
Menu a bonusy: Ano

Obrázok

ČSFD/IMDB
Odkaz na stiahnutie:
Pre zobrazenie odkazov sa musíte alebo


INFO
Odkaz na stiahnutie:
Pre zobrazenie odkazov sa musíte alebo


DOWNLOAD
Odkaz na stiahnutie:
Pre zobrazenie odkazov sa musíte alebo

Odkaz na stiahnutie:
Pre zobrazenie odkazov sa musíte alebo

Odkaz na stiahnutie:
Pre zobrazenie odkazov sa musíte alebo

Odkaz na stiahnutie:
Pre zobrazenie odkazov sa musíte alebo

Odkaz na stiahnutie:
Pre zobrazenie odkazov sa musíte alebo

Odkaz na stiahnutie:
Pre zobrazenie odkazov sa musíte alebo

Odkaz na stiahnutie:
Pre zobrazenie odkazov sa musíte alebo

Odkaz na stiahnutie:
Pre zobrazenie odkazov sa musíte alebo

vratkodemarko
Excellent User
Excellent User
 
Príspevky: 987
Registrovaný: Pia Feb 17, 2012 3:03 pm
Poďakoval: 3 krát
Poďakovali mi: 109 krát

Re: Man from U.N.C.L.E., The / Krycí jméno U.N.C.L.E. (2015)

Poslaťod vratkodemarko » Sob Nov 25, 2017 3:54 pm

Obrázok


Obrázok
Odkaz na stiahnutie:
Pre zobrazenie odkazov sa musíte alebo


Obrázok
D:\prenos\The.Man.from.U.N.C.L.E.2015.1080p.BluRay.CZ.AC3.x264-HdF.mkv
General
Unique ID : 204140453461202661892685190036159607515 (0x9994056E8DDA74D998CABD824A7E32DB)
Complete name : D:\prenos\The.Man.from.U.N.C.L.E.2015.1080p.BluRay.CZ.AC3.x264-HdF.mkv
Format : Matroska
Format version : Version 4 / Version 2
File size : 15.9 GiB
Duration : 1h 56mn
Overall bit rate : 19.6 Mbps
Movie name : hungdaita @ TayTO
Encoded date : UTC 2015-12-02 22:17:17
Writing application : mkvmerge v7.9.0 ('Birds') 64bit
Writing library : libebml v1.3.1 + libmatroska v1.4.2
DURATION : 01:49:43.020000000
NUMBER_OF_FRAMES : 1265
NUMBER_OF_BYTES : 43661
_STATISTICS_WRITING_APP : mkvmerge v7.9.0 ('Birds') 64bit
_STATISTICS_WRITING_DATE_UTC : 2015-12-02 22:17:17
_STATISTICS_TAGS : BPS DURATION NUMBER_OF_FRAMES NUMBER_OF_BYTES
Attachment : Yes
Video #1
ID : 1
Format : AVC
Format/Info : Advanced Video Codec
Format profile : High@L4.1
Format settings, CABAC : Yes
Format settings, ReFrames : 5 frames
Codec ID : V_MPEG4/ISO/AVC
Duration : 1h 56mn
Bit rate : 17.3 Mbps
Width : 1 920 pixels
Height : 800 pixels
Display aspect ratio : 2.40:1
Frame rate : 23.976 fps
Color space : YUV
Chroma subsampling : 4:2:0
Bit depth : 8 bits
Scan type : Progressive
Bits/(Pixel*Frame) : 0.468
Stream size : 14.0 GiB (88%)
Title : TayTo
Writing library : x264 core 142 r2431+42 c69a006 tMod [8-bit@all X86_64]
Encoding settings : cabac=1 / ref=5 / deblock=1:-3:-3 / analyse=0x3:0x133 / me=umh / subme=11 / psy=1 / fade_compensate=0.00 / psy_rd=1.05:0.00 / mixed_ref=1 / me_range=32 / chroma_me=1 / trellis=2 / 8x8dct=1 / cqm=0 / deadzone=21,11 / fast_pskip=1 / chroma_qp_offset=-2 / threads=12 / lookahead_threads=2 / sliced_threads=0 / nr=0 / decimate=0 / interlaced=0 / bluray_compat=0 / constrained_intra=0 / fgo=0 / bframes=9 / b_pyramid=2 / b_adapt=2 / b_bias=0 / direct=3 / weightb=1 / open_gop=0 / weightp=2 / keyint=250 / keyint_min=23 / scenecut=40 / intra_refresh=0 / rc_lookahead=60 / rc=crf / mbtree=0 / crf=15.5000 / qcomp=0.65 / qpmin=0:0:0 / qpmax=69:69:69 / qpstep=4 / vbv_maxrate=62500 / vbv_bufsize=78125 / crf_max=0.0 / nal_hrd=none / filler=0 / ip_ratio=1.20 / pb_ratio=1.20 / aq=1:0.70 / aq-sensitivity=10.00 / aq-factor=1.00:1.00:1.00 / aq2=0 / aq3=0 / zones=959,965,crf=13.5/1360,1372,crf=13.5/3973,4086,crf=14.5/8095,8327,crf=14/10681,10697,crf=13.5/10919,10930,crf=13.5/10681,10697,crf=13.5/10919,10930,crf=13.5/10975,13932,crf=14/14489,14654,crf=13.5/20995,21040,crf=13.5/21202,21228,crf=13.5/21801,22034,crf=14/25036,25968,crf=16/25969,26145,crf=14/26525,26857,crf=14/27888,28286,crf=16/28287,28307,crf=13.5/28445,32880,crf=16/32881,32974,crf=13.5/33330,33590,crf=16/34815,35832,crf=16/52175,52987,crf=14/54239,54416,crf=13.5/56505,56531,crf=13.5/58479,70669,crf=16/72120,72207,crf=14/72278,72347,crf=14/72826,73062,crf=14/73676,73954,crf=14/73981,74038,crf=14/75279,76174,crf=14/76809,78117,crf=13.5/84346,84401,crf=14/85063,85107,crf=14/85369,85406,crf=14/88177,88233,crf=13.5/88785,89969,crf=13.5/91130,91140,crf=13.5/99430,99475,crf=14/99879,106690,crf=16/113170,113649,crf=16/114253,114391,crf=16/119171,121230,crf=16/122916,123789,crf=16/129237,130971,crf=13.5/135283,135292,crf=13.5/155928,157726,crf=16/157727,160806,crf=16.1/160807,167424,crf=20
Language : English
Default : Yes
Forced : No
DURATION : 01:56:29.733000000
NUMBER_OF_FRAMES : 167586
NUMBER_OF_BYTES : 15410616733
_STATISTICS_WRITING_APP : mkvmerge v7.9.0 ('Birds') 64bit
_STATISTICS_WRITING_DATE_UTC : 2015-12-02 22:17:17
_STATISTICS_TAGS : BPS DURATION NUMBER_OF_FRAMES NUMBER_OF_BYTES
Matrix coefficients : BT.709-5, BT.1361, IEC 61966-2-4 709, SMPTE RP177
Audio #2
ID : 2
Format : AC-3
Format/Info : Audio Coding 3
Mode extension : CM (complete main)
Format settings, Endianness : Big
Codec ID : A_AC3
Duration : 1h 56mn
Bit rate mode : Constant
Bit rate : 448 Kbps
Channel(s) : 6 channels
Channel positions : Front: L C R, Side: L R, LFE
Sampling rate : 48.0 KHz
Bit depth : 16 bits
Compression mode : Lossy
Stream size : 373 MiB (2%)
Title : Czech AC3 5.1
Language : Czech
Default : Yes
Forced : No
Audio #3
ID : 3
Format : DTS
Format/Info : Digital Theater Systems
Codec ID : A_DTS
Duration : 1h 56mn
Bit rate mode : Constant
Bit rate : 1 510 Kbps
Channel(s) : 6 channels
Channel positions : Front: L C R, Side: L R, LFE
Sampling rate : 48.0 KHz
Bit depth : 24 bits
Compression mode : Lossy
Stream size : 1.23 GiB (8%)
Title : English DTS 5.1
Language : English
Default : No
Forced : No
Text #4
ID : 4
Format : UTF-8
Codec ID : S_TEXT/UTF8
Codec ID/Info : UTF-8 Plain Text
Title : Cz forced
Language : Czech
Default : Yes
Forced : Yes
Text #5
ID : 5
Format : UTF-8
Codec ID : S_TEXT/UTF8
Codec ID/Info : UTF-8 Plain Text
Title : Cz
Language : Czech
Default : No
Forced : No
Jazyk : CZ Dabing



Obrázok
Obrázok
Odkaz na stiahnutie:
Pre zobrazenie odkazov sa musíte alebo


Späť na HD Movie - Bluray filmy

Kto je on-line

Užívatelia prezerajúci fórum: Žiadny registrovaný užívateľ nie je prítomný a 1 hosť