Monster Hunt 2 (2018)

Novinky 2016, premiéry, filmy bez dabingu a ostatné zahraničné filmy. DVD-rip, BluRay-rip, AVI, DivX a pod.
Luky753
Prispievateľ
Prispievateľ
 
Príspevky: 72
Registrovaný: Ned Nov 13, 2016 3:22 pm
Poďakoval: 0 krát
Poďakovali mi: 6 krát

Monster Hunt 2 (2018)

Poslaťod Luky753 » Pon Nov 19, 2018 6:41 pm

Obrázok

Monster Hunt 2 (2018)

Dobrodružný / Fantasy / Komedie / Rodinný / Animovaný

Čína, 2018, 110 min

Režie: Raman Hui
Scénář: Wai Lun Ng, Sunny Chan
Kamera: Anthony Pun
Hudba: Leon Ko
Hrají: Tony Leung Chiu-wai, Baihe Bai, Boran Jing, Chengpeng Dong

Wuba odešel s ostatními příšerami do divočiny, kde žily v poklidu, dokud na ně jednoho dne nezaútočily příšery poslané novým zlým králem. Wuba utíká do světa lidí, kde se setkává s podvodníčkem Tchuem (Tony Leung Chiu-wa) a jeho kamarádem, příšerou Ben-benem. Tchien-jin (Boran Jing) a Šiao-lan (Baihe Bai) zatím putují světem a hledají Tchien-jinova ztraceného otce. Šiao-lan mívá občas podivné vize, ve kterých jednou spatří Wubu, a rozhodne se ho vydat hledat.

Odkaz na stiahnutie:
Pre zobrazenie odkazov sa musíte alebo


Format : Matroska
Format version : Version 4
File size : 1.96 GiB
Duration : 1 h 50 min
Overall bit rate : 2 547 kb/s

Video
Format : MPEG-4 Visual
Format profile : Advanced Simple@L5
Format settings : BVOP2
Format settings, BVOP : 2
Format settings, QPel : No
Format settings, GMC : No warppoints
Format settings, Matrix : Default (H.263)
Codec ID : V_MS/VFW/FOURCC / XVID
Codec ID/Hint : XviD
Duration : 1 h 50 min
Bit rate : 2 097 kb/s
Width : 720 pixels
Height : 304 pixels

Display aspect ratio : 2.35:1
Frame rate mode : Constant
Frame rate : 23.976 (23976/1000) FPS

Audio
Format : AC-3
Format/Info : Audio Coding 3
Commercial name : Dolby Digital
Codec ID : A_AC3
Duration : 1 h 50 min
Bit rate mode : Constant
Bit rate : 448 kb/s
Channel(s) : 6 channels
Channel layout : L R C LFE Ls Rs
Sampling rate : 48.0 kHz
Frame rate : 31.250 FPS (1536 SPF)
Bit depth : 16 bits
Compression mode : Lossy
Stream size : 353 MiB (18%)
Service kind : Complete Main

Text
ID : 3
Format : UTF-8
Codec ID : S_TEXT/UTF8
Codec ID/Info : UTF-8 Plain Text
Duration : 1 h 44 min
Bit rate : 35 b/s
Count of elements : 1252
Stream size : 26.9 KiB (0%)
Language : Czech

Obrázok

Odkaz na stiahnutie:
Pre zobrazenie odkazov sa musíte alebo

Späť na Movie - Zahraničné filmy

Kto je on-line

Užívatelia prezerajúci fórum: Žiadny registrovaný užívateľ nie je prítomný a 0 hostia