Mrazík / Morozko (1964)

Kompletné Blu-ray, Untouched, Remux, Re-Encode
Obrázok užívateľa
uploaderup
Power User
Power User
 
Príspevky: 750
Registrovaný: Ned Nov 03, 2013 3:04 pm
Poďakoval: 60 krát
Poďakovali mi: 280 krát

Mrazík / Morozko (1964)

Poslaťod uploaderup » Ned Mar 05, 2017 10:34 am

    Mrazík / Morozko (1964)
    Obrázok

    Odkaz na stiahnutie:
    Pre zobrazenie odkazov sa musíte alebo



    DISC INFO:

    Disc Title: MOROZKO
    Disc Size: 19 851 256 495 bytes
    Protection: AACS
    BD-Java: Yes
    Extras: 50Hz Content
    BDInfo: 0.5.8

    PLAYLIST REPORT:

    Name: 01003.MPLS
    Length: 1:19:59.083 (h:m:s.ms)
    Size: 18 783 854 592 bytes
    Total Bitrate: 31,31 Mbps

    VIDEO:

    Codec Bitrate Description
    ----- ------- -----------
    MPEG-4 AVC Video 29708 kbps 1080p / 24 fps / 16:9 / High Profile 4.1

    AUDIO:

    Codec Language Bitrate Description
    ----- -------- ------- -----------
    Dolby Digital Audio Russian 192 kbps 2.0 / 48 kHz / 192 kbps / DN -4dB / Dolby Surround

    FILES:

    Name Time In Length Size Total Bitrate
    ---- ------- ------ ---- -------------
    00005.M2TS 0:00:00.000 1:19:59.083 18 783 854 592 31 312

    CHAPTERS:

    Number Time In Length Avg Video Rate Max 1-Sec Rate Max 1-Sec Time Max 5-Sec Rate Max 5-Sec Time Max 10Sec Rate Max 10Sec Time Avg Frame Size Max Frame Size Max Frame Time
    ------ ------- ------ -------------- -------------- -------------- -------------- -------------- -------------- -------------- -------------- -------------- --------------
    1 0:00:00.000 0:02:17.000 27 160 kbps 46 242 kbps 00:02:14.499 35 420 kbps 00:02:10.625 32 672 kbps 00:02:05.499 141 414 bytes 502 174 bytes 00:02:15.000
    2 0:02:17.000 0:06:10.125 28 379 kbps 38 894 kbps 00:02:17.958 32 618 kbps 00:02:27.125 31 547 kbps 00:02:17.499 147 808 bytes 533 832 bytes 00:06:12.416
    3 0:08:27.125 0:08:52.791 30 029 kbps 37 746 kbps 00:09:56.208 33 011 kbps 00:13:28.916 32 320 kbps 00:13:27.250 156 402 bytes 601 466 bytes 00:13:16.208
    4 0:17:19.916 0:08:33.041 30 008 kbps 38 409 kbps 00:25:01.708 32 993 kbps 00:24:58.625 31 492 kbps 00:24:58.708 156 292 bytes 604 118 bytes 00:24:28.375
    5 0:25:52.958 0:05:21.708 29 989 kbps 37 082 kbps 00:30:17.416 32 328 kbps 00:30:15.416 31 302 kbps 00:26:35.791 156 192 bytes 615 855 bytes 00:26:03.250
    6 0:31:14.666 0:09:22.333 29 986 kbps 37 970 kbps 00:36:01.375 32 833 kbps 00:36:01.375 32 338 kbps 00:33:05.791 156 176 bytes 596 877 bytes 00:40:36.083
    7 0:40:37.000 0:07:36.708 29 966 kbps 40 861 kbps 00:44:20.666 34 212 kbps 00:47:30.166 32 196 kbps 00:40:37.708 156 073 bytes 597 438 bytes 00:44:55.666
    8 0:48:13.708 0:09:02.583 29 678 kbps 38 894 kbps 00:53:51.416 35 130 kbps 00:54:04.375 32 508 kbps 00:54:38.333 154 571 bytes 591 858 bytes 00:49:47.583
    9 0:57:16.291 0:08:48.333 29 966 kbps 38 347 kbps 01:00:37.791 34 138 kbps 00:58:39.541 32 233 kbps 00:58:39.541 156 074 bytes 594 062 bytes 01:04:51.250
    10 1:06:04.625 0:13:47.375 29 989 kbps 39 717 kbps 01:19:46.166 34 992 kbps 01:19:45.666 32 643 kbps 01:17:42.125 156 193 bytes 601 743 bytes 01:18:46.375
    11 1:19:52.000 0:00:07.083 1 157 kbps 2 213 kbps 01:19:52.041 1 165 kbps 01:19:52.000 0 kbps 00:00:00.000 6 064 bytes 32 748 bytes 01:19:54.416


    Odkaz na stiahnutie:
    Pre zobrazenie odkazov sa musíte alebo


    Odkaz na stiahnutie:
    Pre zobrazenie odkazov sa musíte alebo


    Pass:
    Odkaz na stiahnutie:
    Pre zobrazenie odkazov sa musíte alebo

vratkodemarko
Excellent User
Excellent User
 
Príspevky: 987
Registrovaný: Pia Feb 17, 2012 3:03 pm
Poďakoval: 3 krát
Poďakovali mi: 109 krát

Re: Mrazík / Morozko (1964)

Poslaťod vratkodemarko » Pon Nov 27, 2017 1:18 pm

Obrázok


Obrázok
Odkaz na stiahnutie:
Pre zobrazenie odkazov sa musíte alebo


Obrázok
D:\prenos\Mrazík_Morozko (1964)(CZ)[1080pHD].mkv
General
Unique ID : 203506697948785076394746326475309230791 (0x9919F6DF66100527A2D25FA967AEAAC7)
Complete name : D:\prenos\Mrazík_Morozko (1964)(CZ)[1080pHD].mkv
Format : Matroska
Format version : Version 4 / Version 2
File size : 16.8 GiB
Duration : 1h 19mn
Overall bit rate mode : Variable
Overall bit rate : 30.2 Mbps
Encoded date : UTC 2017-03-07 20:20:59
Writing application : mkvmerge v8.3.0 ('Over the Horizon') 64bit
Writing library : libebml v1.3.1 + libmatroska v1.4.2
Video #1
ID : 1
Format : AVC
Format/Info : Advanced Video Codec
Format profile : High@L4.1
Format settings, CABAC : Yes
Format settings, ReFrames : 4 frames
Format settings, GOP : M=3, N=24
Codec ID : V_MPEG4/ISO/AVC
Duration : 1h 19mn
Bit rate mode : Variable
Bit rate : 29.1 Mbps
Maximum bit rate : 30.0 Mbps
Width : 1 920 pixels
Height : 1 080 pixels
Display aspect ratio : 16:9
Frame rate : 24.000 fps
Standard : NTSC
Color space : YUV
Chroma subsampling : 4:2:0
Bit depth : 8 bits
Scan type : Progressive
Bits/(Pixel*Frame) : 0.585
Stream size : 16.3 GiB (97%)
Title : Mrazik.1964.1080p.BluRay.x264.AC3-5.1.CZ-BIRD
Language : Czech
Default : Yes
Forced : No
Color primaries : BT.709-5, BT.1361, IEC 61966-2-4, SMPTE RP177
Transfer characteristics : BT.709-5, BT.1361
Matrix coefficients : BT.709-5, BT.1361, IEC 61966-2-4 709, SMPTE RP177
Audio #2
ID : 2
Format : AC-3
Format/Info : Audio Coding 3
Mode extension : CM (complete main)
Format settings, Endianness : Big
Codec ID : A_AC3
Duration : 1h 19mn
Bit rate mode : Constant
Bit rate : 448 Kbps
Channel(s) : 6 channels
Channel positions : Front: L C R, Side: L R, LFE
Sampling rate : 48.0 KHz
Bit depth : 16 bits
Compression mode : Lossy
Stream size : 256 MiB (1%)
Title : AC3-5.1 DD / DVD
Language : Czech
Default : Yes
Forced : No
Jazyk : CZ Dabing



Obrázok
Obrázok
Odkaz na stiahnutie:
Pre zobrazenie odkazov sa musíte alebo


Späť na HD Movie - Bluray filmy

Kto je on-line

Užívatelia prezerajúci fórum: Žiadny registrovaný užívateľ nie je prítomný a 0 hostia