Predátor: Evoluce: (2018)

Filmy v HD formáte, bez dabingu a ostatné zahraničné filmy
Luky753
Začiatočník
Začiatočník
 
Príspevky: 34
Registrovaný: Ned Nov 13, 2016 3:22 pm
Poďakoval: 0 krát
Poďakovali mi: 0 krát

Predátor: Evoluce: (2018)

Poslaťod Luky753 » Ned Nov 11, 2018 2:16 am

ponte píše:Obrázok

Predátor: Evoluce: (2018)



Akční / Sci-Fi / Dobrodružný / Horor / Thriller

USA, 2018, 108 min

Režie: Shane Black
Scénář: Fred Dekker, Shane Black
Kamera: Larry Fong
Hudba: Henry Jackman
Hrají: Boyd Holbrook, Trevante Rhodes, Jacob Tremblay, Keegan-Michael Key, Olivia Munn, Thomas Jane, Alfie Allen, Sterling K. Brown, Augusto Aguilera, Jake Busey, Yvonne Strahovski, Niall Matter, Lochlyn Munro, Patrick Sabongui, Paul Lazenby, Andrew Jenkins, Harrison MacDonald
Producenti: John Davis, Lawrence Gordon
Střih: Harry B. Miller III
Scénografie: Martin Whist
Kostýmy: Tish Monaghan

Před více než třiceti lety jsme se s nimi střetli poprvé. A byl to pořádný nářez. Teď se Predátoři, jedni z největších lovců celého vesmíru, opět vrací na naši planetu. Jsou však mnohem silnější a chytřejší než kdykoliv předtím. Lov a zabíjení jsou pro ně stále největší zábavou. Predátoři se geneticky zdokonalili pomocí DNA jiných vesmírných bytostí. Když jeden kluk nešťastnou náhodou zapříčiní jejich návrat na Zemi, vůbec není jisté, kdo před nimi ochrání lidstvo tentokrát. Najde se někdo, kdo nebude jen lovná zvěř, ale dokáže se jim postavit jako rovnocenný soupeř? Poslední šancí lidstva na záchranu před vesmírnými nimrody se stává už jen malá parta bývalých a naprosto šílených vojáků a jedna mladá evoluční bioložka. Jen ti mají aspoň malou šanci zabránit vyhubení našeho živočišného druhu.

Odkaz na stiahnutie:
Pre zobrazenie odkazov sa musíte alebo


Format : Matroska
Format version : Version 4
File size : 3.49 GiB
Duration : 1 h 46 min
Overall bit rate : 4 675 kb/s
Movie name : EVO

Video
Format : AVC
Format/Info : Advanced Video Codec
Format profile : High@L4.1
Format settings : CABAC / 4 Ref Frames
Format settings, CABAC : Yes
Format settings, ReFrames : 4 frames
Codec ID : V_MPEG4/ISO/AVC
Duration : 1 h 46 min
Bit rate : 4 519 kb/s
Width : 1 920 pixels
Height : 800 pixels

Display aspect ratio : 2.40:1
Frame rate mode : Constant
Frame rate : 30.000 FPS

Audio
Format : AC-3
Format/Info : Audio Coding 3
Commercial name : Dolby Digital
Codec ID : A_AC3
Duration : 1 h 46 min
Bit rate mode : Constant
Bit rate : 192 kb/s
Channel(s) : 2 channels
Channel layout : L R
Sampling rate : 48.0 kHz
Frame rate : 31.250 FPS (1536 SPF)
Bit depth : 16 bits
Compression mode : Lossy
Delay relative to video : -65 ms
Stream size : 147 MiB (4%)
Title : Stereo
Language : English
Service kind : Complete Main
Default : Yes
Forced : No

Text
ID : 3
Format : UTF-8
Codec ID : S_TEXT/UTF8
Codec ID/Info : UTF-8 Plain Text
Duration : 1 h 38 min
Bit rate : 37 b/s
Count of elements : 890
Stream size : 27.5 KiB (0%)
Language : Czech

Odkaz na stiahnutie:
Pre zobrazenie odkazov sa musíte alebo

Späť na HD Movie - Zahraničné filmy

Kto je on-line

Užívatelia prezerajúci fórum: Žiadny registrovaný užívateľ nie je prítomný a 0 hostia