Red Pill, The (2016)

Dokumentárne filmy, dokumentárne seriály, televízne relácie, športové prenosy...
Obrázok užívateľa
alta
Začiatočník
Začiatočník
 
Príspevky: 35
Registrovaný: Pon Júl 20, 2009 2:37 pm
Poďakoval: 4 krát
Poďakovali mi: 3 krát

Red Pill, The (2016)

Poslaťod alta » Uto Jan 23, 2018 12:18 am

Red Pill, The (2016)
Obal/Cover:

Informácie/Informations:

Odkaz na stiahnutie:
Pre zobrazenie odkazov sa musíte alebo


Kvalita/Quality:

Jazyk / Language: EN
Titulky / Subtitles: CZ


Complete name : The Red Pill (2016).mp4
Format : MPEG-TS
File size : 724 MiB
Duration : 1 h 57 min
Overall bit rate mode : Variable
Overall bit rate : 860 kb/s

Video
ID : 69 (0x45)
Menu ID : 1 (0x1)
Format : AVC
Format/Info : Advanced Video Codec
Format profile : High@L3
Format settings, CABAC : Yes
Format settings, ReFrames : 4 frames
Codec ID : 27
Duration : 1 h 57 min
Bit rate : 688 kb/s
Nominal bit rate : 800 kb/s
Width : 720 pixels
Height : 480 pixels
Display aspect ratio : 16:9
Frame rate : 29.970 (30000/1001) FPS
Standard : NTSC
Color space : YUV
Chroma subsampling : 4:2:0
Bit depth : 8 bits
Scan type : Progressive
Bits/(Pixel*Frame) : 0.066
Stream size : 579 MiB (80%)
Writing library : x264 core 142
Encoding settings : cabac=1 / ref=3 / deblock=1:0:0 / analyse=0x3:0x13 / me=hex / subme=7 / psy=1 / psy_rd=1.00:0.00 / mixed_ref=1 / me_range=16 / chroma_me=1 / trellis=1 / 8x8dct=1 / cqm=0 / deadzone=21,11 / fast_pskip=1 / chroma_qp_offset=-2 / threads=6 / lookahead_threads=1 / sliced_threads=0 / nr=0 / decimate=1 / interlaced=0 / bluray_compat=0 / constrained_intra=0 / bframes=3 / b_pyramid=2 / b_adapt=1 / b_bias=0 / direct=1 / weightb=1 / open_gop=0 / weightp=2 / keyint=250 / keyint_min=25 / scenecut=40 / intra_refresh=0 / rc_lookahead=40 / rc=abr / mbtree=1 / bitrate=800 / ratetol=1.0 / qcomp=0.60 / qpmin=10 / qpmax=51 / qpstep=4 / ip_ratio=1.40 / aq=1:1.00

Audio
ID : 68 (0x44)
Menu ID : 1 (0x1)
Format : MPEG Audio
Format version : Version 1
Format profile : Layer 2
Codec ID : 3
Duration : 1 h 57 min
Bit rate mode : Constant
Bit rate : 128 kb/s
Channel(s) : 2 channels
Sampling rate : 44.1 kHz
Compression mode : Lossy
Delay relative to video : -17 ms
Stream size : 108 MiB (15%)
Language : English


Sceenshot:

3x3

Stahuj/Downlaod:

[spoiler]
Odkaz na stiahnutie:
Pre zobrazenie odkazov sa musíte alebo
[/spoiler]

Heslo/Password:
No!
CPU : Intel Core i7-4770K
RAM : 16 GB Corsair
GPU : GeForce GTX 1060 6GB
HDD : 250 GB SSD, 4 TB HDD
OS : Win 7 Home / Win 10 Pro
Acer XB281 G-SYNC 4K 1ms

Späť na Movie - Dokumenty

Kto je on-line

Užívatelia prezerajúci fórum: Žiadny registrovaný užívateľ nie je prítomný a 0 hostia