Satyameva Jayate (2018)

Novinky 2016, premiéry, filmy bez dabingu a ostatné zahraničné filmy. DVD-rip, BluRay-rip, AVI, DivX a pod.
Luky753
Začiatočník
Začiatočník
 
Príspevky: 39
Registrovaný: Ned Nov 13, 2016 3:22 pm
Poďakoval: 0 krát
Poďakovali mi: 2 krát

Satyameva Jayate (2018)

Poslaťod Luky753 » Ned Okt 28, 2018 6:04 pm

ponte753 píše:Obrázok

Satyameva Jayate (2018)

Akční / Thriller

Indie, 2018, 140 min

Režie: Milap Zaveri
Scénář: Milap Zaveri
Kamera: Nigam Bomzan
Hudba: Sanjoy Chowdhury
Hrají: John Abraham, Manoj Bajpai, Aisha Sharma, Amruta Khanvilkar, Tota Roy Chowdhury, Manish Chaudhary, Chetan Pandit, Ganesh Yadav
Producenti: Nikkhil Advani
Scénografie: Priya Suhas

Odkaz na stiahnutie:
Pre zobrazenie odkazov sa musíte alebo


DCP Shivansh má za úlohu chytiť Vira, toho muža za policajnými zabíjaním v meste. Obaja sú nakoniec proti tomu istému nepriateľovi, ale rozdelené jemnou líniou, zákonom.

Format : Matroska
Format version : Version 4
File size : 2.31 GiB
Duration : 2 h 19 min
Overall bit rate : 2 371 kb/s
Movie name : Satyameva Jayate 2018 Hindi 1080p WEB-DL DD 5.1 x264 ESub [MW]

Video
Format : AVC
Format/Info : Advanced Video Codec
Format profile : High@L4.1
Format settings : CABAC / 4 Ref Frames
Format settings, CABAC : Yes
Format settings, ReFrames : 4 frames
Codec ID : V_MPEG4/ISO/AVC
Duration : 2 h 19 min
Bit rate : 2 000 kb/s
Width : 1 920 pixels
Height : 800 pixels

Display aspect ratio : 2.40:1
Frame rate mode : Constant
Frame rate : 24.000 FPS

Audio
Format : E-AC-3
Format/Info : Enhanced AC-3
Commercial name : Dolby Digital Plus
Codec ID : A_EAC3
Duration : 2 h 19 min
Bit rate mode : Constant
Bit rate : 384 kb/s
Channel(s) : 6 channels
Channel layout : L R C LFE Ls Rs
Sampling rate : 48.0 kHz
Frame rate : 31.250 FPS (1536 SPF)
Compression mode : Lossy
Stream size : 383 MiB (16%)
Language : Hindi
Service kind : Complete Main
Default : Yes
Forced : No

Text #1
ID : 3
Format : UTF-8
Codec ID : S_TEXT/UTF8
Codec ID/Info : UTF-8 Plain Text
Duration : 2 h 12 min
Bit rate : 42 b/s
Count of elements : 1306
Stream size : 41.0 KiB (0%)
Language : English
Default : Yes
Forced : No

Text #2
ID : 4
Format : UTF-8
Codec ID : S_TEXT/UTF8
Codec ID/Info : UTF-8 Plain Text
Duration : 2 h 14 min
Bit rate : 43 b/s
Count of elements : 1313
Stream size : 43.1 KiB (0%)
Language :Czech, ENG
Default : No
Forced : No

Odkaz na stiahnutie:
Pre zobrazenie odkazov sa musíte alebo

Späť na Movie - Zahraničné filmy

Kto je on-line

Užívatelia prezerajúci fórum: Žiadny registrovaný užívateľ nie je prítomný a 3 hostia

cron