Searching (2018)

Novinky 2016, premiéry, filmy bez dabingu a ostatné zahraničné filmy. DVD-rip, BluRay-rip, AVI, DivX a pod.
Luky753
Prispievateľ
Prispievateľ
 
Príspevky: 72
Registrovaný: Ned Nov 13, 2016 3:22 pm
Poďakoval: 0 krát
Poďakovali mi: 6 krát

Searching (2018)

Poslaťod Luky753 » Štv Nov 22, 2018 4:22 pm

Obrázok

Searching (2018)

BEZ KOREJSKýCH TITULKOV V OBRAZE

Drama

USA, 2018, 101 min

Režie: Aneesh Chaganty
Scénář: Aneesh Chaganty, Sev Ohanian
Kamera: Juan Sebastian Baron
Hudba: Torin Borrowdale
Hrají: John Cho, Debra Messing, Thomas Barbusca, Michelle La, Sean O'Bryan, Ric Sarabia, Colin Woodell, Ashley Edner, Roy Abramsohn, Morgan Peter Brown, Benjamin J. Cain Jr., Courtney Lauren Cummings, Sara Sohn

Keď Davidovi zmizne jeho jediná dcéra Margot, polícia spustí pátranie. Po 37 hodinách však nemá jedinú stopu, a tak sa David rozhodne pozrieť niekam, kde zatiaľ nikto nehľadal - do dcérinho notebooku. Pomocou jej počítača a rozhovorov s jej priateľmi David odhaľuje dcérine tajomstvá a zisťuje, že Margot nebola zďaleka tou dokonalou dcérou, za ktorú ju považoval

Odkaz na stiahnutie:
Pre zobrazenie odkazov sa musíte alebo

Format : Matroska
Format version : Version 4
File size : 1.54 GiB
Duration : 1 h 42 min

Video
Format : AVC
Format/Info : Advanced Video Codec
Format profile : Main@L4
Format settings : CABAC / 1 Ref Frames
Format settings, CABAC : Yes
Format settings, ReFrames : 1 frame
Codec ID : V_MPEG4/ISO/AVC
Duration : 1 h 42 min
Bit rate mode : Variable
Bit rate : 1 962 kb/s
Maximum bit rate : 6 000 kb/s
Width : 1 920 pixels
Height : 1 080 pixels

Display aspect ratio : 16:9
Frame rate mode : Constant
Frame rate : 23.976 (23976/1000) FPS

Audio
Format : AC-3
Format/Info : Audio Coding 3
Commercial name : Dolby Digital
Codec ID : A_AC3
Duration : 1 h 42 min
Bit rate mode : Constant
Bit rate : 192 kb/s
Channel(s) : 2 channels
Channel layout : L R
Sampling rate : 48.0 kHz
Frame rate : 31.250 FPS (1536 SPF)
Bit depth : 16 bits
Compression mode : Lossy
Delay relative to video : -5 ms
Stream size : 141 MiB (9%)
Language : English
Service kind : Complete Main
Default : Yes
Forced : No

Text
ID : 3
Format : UTF-8
Codec ID : S_TEXT/UTF8
Codec ID/Info : UTF-8 Plain Text
Duration : 1 h 36 min
Bit rate : 62 b/s
Count of elements : 1183
Stream size : 44.0 KiB (0%)
Language : Slovak

Menu
00:00:00.000 : en:1
00:06:24.384 : en:2
00:12:40.635 : en:3
00:20:12.545 : en:4
00:23:11.849 : en:5
00:31:00.651 : en:6
00:35:48.647 : en:7
00:39:38.460 : en:8
00:47:26.845 : en:9
00:53:30.708 : en:10
00:59:15.928 : en:11
01:05:28.216 : en:12
01:13:06.257 : en:13
01:21:13.619 : en:14
01:26:06.203 : en:15
01:34:31.791 : en:16

Obrázok

Odkaz na stiahnutie:
Pre zobrazenie odkazov sa musíte alebo

Späť na Movie - Zahraničné filmy

Kto je on-line

Užívatelia prezerajúci fórum: Žiadny registrovaný užívateľ nie je prítomný a 0 hostia

cron