Star Wars Povstalci / Star Wars Rebels / S01 / CZ/ENG (2014)

Televízne seriály v HD formáte
Obrázok užívateľa
habatom
Začiatočník
Začiatočník
 
Príspevky: 30
Registrovaný: Sob Feb 14, 2015 4:47 pm
Poďakoval: 1 krát
Poďakovali mi: 78 krát

Star Wars Povstalci / Star Wars Rebels / S01 / CZ/ENG (2014)

Poslaťod habatom » Uto Mar 31, 2015 6:17 pm

Star.Wars.Rebels.S01.1080p.WEB-DL.DD5.1.ENG.2.0.CZ
AUDIO - CZ 2.0., ENG 5.1.
TITULKY - CZ, ENG


Obrázok


Info:
Odkaz na stiahnutie:
Pre zobrazenie odkazov sa musíte alebo



Seriál plný akce je zasazen mezi Epizodu III a IV, do období, jež se na obrazovkách doposud neobjevilo. Star Wars Povstalci začíná ve chvíli, kdy Impérium pevně svírá Galaxii ve svých rukou a loví zbývající rytíře Jedi. V této chvíli se proti Impériu začne formovat povstalecká Aliance...


Info video:
Star.Wars.Rebels.S01E01.Spark.of.Rebellion.1080p.WEB-DL.DD5.1.ENG.2.0.CZ.mkv
Format : Matroska
Format version : Version 4 / Version 2
File size : 1.76 GiB
Duration : 43mn 22s
Overall bit rate : 5 825 Kbps
Encoded date : UTC 2015-03-30 15:51:08
Writing application : mkvmerge v7.8.0 ('River Man') 64bit built on Mar 27 2015 16:31:37
Writing library : libebml v1.3.1 + libmatroska v1.4.2
_STATISTICS_WRITING_APP : mkvmerge v7.8.0 ('River Man') 64bit built on Mar 27 2015 16:31:37
_STATISTICS_WRITING_DATE_UT : 2015-03-30 15:51:08
_STATISTICS_TAGS : BPS DURATION NUMBER_OF_FRAMES NUMBER_OF_BYTES
DURATION : 00:42:25.520000000
NUMBER_OF_FRAMES : 460
NUMBER_OF_BYTES : 18707

Video
ID : 1
Format : AVC
Format/Info : Advanced Video Codec
Format profile : High@L4.0
Format settings, CABAC : Yes
Format settings, ReFrames : 4 frames
Codec ID : V_MPEG4/ISO/AVC
Duration : 43mn 22s
Bit rate : 5 133 Kbps
Width : 1 920 pixels
Height : 1 080 pixels
Display aspect ratio : 16:9
Frame rate mode : Constant
Frame rate : 23.976 fps
Color space : YUV
Chroma subsampling : 4:2:0
Bit depth : 8 bits
Scan type : Progressive
Bits/(Pixel*Frame) : 0.103
Stream size : 1.55 GiB (88%)
Title : H.264
Default : Yes
Forced : No
Color primaries : BT.709
Transfer characteristics : BT.709
Matrix coefficients : BT.709
Color range : Limited

Audio #1
ID : 2
Format : AC-3
Format/Info : Audio Coding 3
Mode extension : CM (complete main)
Format settings, Endianness : Big
Codec ID : A_AC3
Duration : 43mn 22s
Bit rate mode : Constant
Bit rate : 192 Kbps
Channel(s) : 2 channels
Channel positions : Front: L R
Sampling rate : 48.0 KHz
Bit depth : 16 bits
Compression mode : Lossy
Stream size : 59.6 MiB (3%)
Language : Czech
Default : Yes
Forced : No

Audio #2
ID : 3
Format : AC-3
Format/Info : Audio Coding 3
Mode extension : CM (complete main)
Format settings, Endianness : Big
Codec ID : A_AC3
Duration : 43mn 22s
Bit rate mode : Constant
Bit rate : 384 Kbps
Channel(s) : 6 channels
Channel positions : Front: L C R, Side: L R, LFE
Sampling rate : 48.0 KHz
Bit depth : 16 bits
Compression mode : Lossy
Stream size : 119 MiB (7%)
Language : English
Default : No
Forced : No

Text #1
ID : 4
Format : UTF-8
Codec ID : S_TEXT/UTF8
Codec ID/Info : UTF-8 Plain Text
Language : Czech
Default : No
Forced : No

Text #2
ID : 5
Format : UTF-8
Codec ID : S_TEXT/UTF8
Codec ID/Info : UTF-8 Plain Text
Language : English
Default : No
Forced : No


Download:

FastShare

Star.Wars.Rebels.S01E01.Spark.of.Rebellion.1080p.WEB-DL.DD5.1.ENG.2.0.CZ
Odkaz na stiahnutie:
Pre zobrazenie odkazov sa musíte alebo

Star.Wars.Rebels.S01E02.Droids.in.Distress.1080p.WEB-DL.DD5.1.ENG.2.0.CZ
Odkaz na stiahnutie:
Pre zobrazenie odkazov sa musíte alebo

Star.Wars.Rebels.S01E03.Fighter.Flight.1080p.WEB-DL.DD5.1.ENG.2.0.CZ
Odkaz na stiahnutie:
Pre zobrazenie odkazov sa musíte alebo

Star.Wars.Rebels.S01E04.Rise.of.the.Old.Masters.1080p.WEB-DL.DD5.1.ENG.2.0.CZ
Odkaz na stiahnutie:
Pre zobrazenie odkazov sa musíte alebo

Star.Wars.Rebels.S01E05.Breaking.Ranks.1080p.WEB-DL.DD5.1.ENG.2.0.CZ
Odkaz na stiahnutie:
Pre zobrazenie odkazov sa musíte alebo

Star.Wars.Rebels.S01E06.Out.of.Darkness.1080p.WEB-DL.DD5.1.ENG.2.0.CZ
Odkaz na stiahnutie:
Pre zobrazenie odkazov sa musíte alebo

Star.Wars.Rebels.S01E07.Empire.Day.1080p.WEB-DL.DD5.1.ENG.2.0.CZ
Odkaz na stiahnutie:
Pre zobrazenie odkazov sa musíte alebo

Star.Wars.Rebels.S01E08.Gathering.Forces.1080p.WEB-DL.DD5.1.ENG.2.0.CZ
Odkaz na stiahnutie:
Pre zobrazenie odkazov sa musíte alebo

Star.Wars.Rebels.S01E09.Path.of.the.Jedi.1080p.WEB-DL.DD5.1.ENG.2.0.CZ
Odkaz na stiahnutie:
Pre zobrazenie odkazov sa musíte alebo

Star.Wars.Rebels.S01E10.Idiots.Array.1080p.WEB-DL.DD5.1.ENG.2.0.CZ
Odkaz na stiahnutie:
Pre zobrazenie odkazov sa musíte alebo

Star.Wars.Rebels.S01E11.Vision.of.Hope.1080p.WEB-DL.DD5.1.ENG.2.0.CZ
Odkaz na stiahnutie:
Pre zobrazenie odkazov sa musíte alebo

Star.Wars.Rebels.S01E12.Call.to.Action.1080p.WEB-DL.DD5.1.ENG.2.0.CZ
Odkaz na stiahnutie:
Pre zobrazenie odkazov sa musíte alebo

Star.Wars.Rebels.S01E13.Rebel.Resolve.1080p.WEB-DL.DD5.1.ENG.2.0.CZ
Odkaz na stiahnutie:
Pre zobrazenie odkazov sa musíte alebo

Star.Wars.Rebels.S01E14.Fire.Across.the.Galaxy.1080p.WEB-DL.DD5.1.ENG.2.0.CZ
Odkaz na stiahnutie:
Pre zobrazenie odkazov sa musíte alebo
Naposledy upravil habatom dňa Str Máj 06, 2015 11:26 pm, celkovo upravené 3

Obrázok užívateľa
habatom
Začiatočník
Začiatočník
 
Príspevky: 30
Registrovaný: Sob Feb 14, 2015 4:47 pm
Poďakoval: 1 krát
Poďakovali mi: 78 krát

Re: Star Wars Povstalci / Star Wars Rebels / S01 / CZ/ENG (2

Poslaťod habatom » Str Máj 06, 2015 11:29 pm

habatom píše:Přidán 13. a (1. série) poslední 14. díl :cool:


Späť na HD Movie - TV seriály

Kto je on-line

Užívatelia prezerajúci fórum: Žiadny registrovaný užívateľ nie je prítomný a 1 hosť