The Boarder (2018)

Novinky 2016, premiéry, filmy bez dabingu a ostatné zahraničné filmy. DVD-rip, BluRay-rip, AVI, DivX a pod.
Luky753
Začiatočník
Začiatočník
 
Príspevky: 39
Registrovaný: Ned Nov 13, 2016 3:22 pm
Poďakoval: 0 krát
Poďakovali mi: 2 krát

The Boarder (2018)

Poslaťod Luky753 » Ned Nov 11, 2018 11:35 am

ponte píše:Obrázok

The Boarder (2018)

Thriller

USA, 2018, 90 min

Režie: Rob Schmidt
Scénář: Jed Seidel
Kamera: Sidarth Kantamneni
Hrají: Adam Huber, Jenna Kanell, James Maslow, Tanya Clarke, Lorynn York, Jannette Sepwa, Julia Denton
Producenti: John E. Carr, Toby Yoshimura
Scénografie: Kelley Boonruang
Kostýmy: Katie Carpenter

Keď sa Kristen rozhodne odísť z vysokej školy a vrátiť sa domov, nájde Jake, pekného cudzinca, ktorý žije vo svojej starom izbe. Jej matka, Moira, vysvetľuje, že pozvala Jake, aby žila ako nájomca, aby pomohla s výdavkami domu. Čoskoro Kristen objaví nielen, že Jake a Moira spí spolu, ale Jake má tajnú, nebezpečnú minulosť.

Odkaz na stiahnutie:
Pre zobrazenie odkazov sa musíte alebo


Format : Matroska
Format version : Version 4
File size : 1.47 GiB
Duration : 1 h 19 min
Overall bit rate mode : Variable
Overall bit rate : 2 637 kb/s

Video
Format : AVC
Format/Info : Advanced Video Codec
Format profile : High@L3.1
Format settings : CABAC / 5 Ref Frames
Format settings, CABAC : Yes
Format settings, ReFrames : 5 frames
Codec ID : V_MPEG4/ISO/AVC
Duration : 1 h 19 min
Bit rate mode : Variable
Bit rate : 2 541 kb/s
Maximum bit rate : 9 800 kb/s
Width : 1 280 pixels
Height : 720 pixels

Display aspect ratio : 16:9
Frame rate mode : Constant
Frame rate : 29.970 (30000/1001) FPS

Audio
Format : AAC LC
Format/Info : Advanced Audio Codec Low Complexity
Codec ID : A_AAC-2
Duration : 1 h 19 min
Bit rate : 93.4 kb/s
Channel(s) : 2 channels
Channel layout : L R
Sampling rate : 48.0 kHz
Frame rate : 46.875 FPS (1024 SPF)
Compression mode : Lossy
Stream size : 53.4 MiB (4%)
Default : Yes
Forced : No

Text
ID : 3
Format : UTF-8
Codec ID : S_TEXT/UTF8
Codec ID/Info : UTF-8 Plain Text
Duration : 1 h 18 min
Bit rate : 57 b/s
Count of elements : 1234
Stream size : 33.5 KiB (0%)
Language :Czech

Odkaz na stiahnutie:
Pre zobrazenie odkazov sa musíte alebo

Späť na Movie - Zahraničné filmy

Kto je on-line

Užívatelia prezerajúci fórum: Žiadny registrovaný užívateľ nie je prítomný a 2 hostia