The Dark (2018)

Novinky 2016, premiéry, filmy bez dabingu a ostatné zahraničné filmy. DVD-rip, BluRay-rip, AVI, DivX a pod.
Luky753
Začiatočník
Začiatočník
 
Príspevky: 39
Registrovaný: Ned Nov 13, 2016 3:22 pm
Poďakoval: 0 krát
Poďakovali mi: 2 krát

The Dark (2018)

Poslaťod Luky753 » Sob Nov 03, 2018 2:50 am

Obrázok

The Dark (2018)

Horor

Rakousko, 2018, 94 min

Režie: Justin P. Lange, Klemens Hufnagl
Scénář: Justin P. Lange
Kamera: Klemens Hufnagl
Hrají: Nadia Alexander, Toby Nichols, Karl Markovics, Margarete Tiesel, Dan Beirne, Scott Beaudin, Dylan Trowbridge, Chris Farquhar, Sarah Murphy-Dyson
Producenti: Danny Krausz, Kurt Stocker, Laura Perlmutter, Andrew… (více)
Střih: Julia Drack
Scénografie: Danielle Sahota

Nemrtvá dívka Mina (Nadia Alexander) potká jednoho dne slepého chlapce Alexe (Toby Nichols) a rychle se s ním skamarádí. Oba jsou totiž obětmi zneužívání a přátelství jim dodává víru v lepší zítřek. K začátku nové etapy života ale budou muset jít přes mrtvoly.

Format : Matroska
Format version : Version 4
File size : 1.41 GiB
Duration : 1 h 34 min
Overall bit rate : 2 126 kb/s
Movie name : The Dark (2018)

Video
Format : AVC
Format/Info : Advanced Video Codec
Format profile : High@L4
Format settings : CABAC / 4 Ref Frames
Format settings, CABAC : Yes
Format settings, ReFrames : 4 frames
Codec ID : V_MPEG4/ISO/AVC
Duration : 1 h 34 min
Bit rate : 1 700 kb/s
Width : 720 pixels
Height : 304 pixels

Display aspect ratio : 2.35:1
Frame rate mode : Constant
Frame rate : 23.976 (24000/1001) FPS

Audio
Format : AC-3
Format/Info : Audio Coding 3
Commercial name : Dolby Digital
Codec ID : A_AC3
Duration : 1 h 34 min
Bit rate mode : Constant
Bit rate : 448 kb/s
Channel(s) : 6 channels
Channel layout : L R C LFE Ls Rs
Sampling rate : 48.0 kHz
Frame rate : 31.250 FPS (1536 SPF)
Bit depth : 16 bits
Compression mode : Lossy
Delay relative to video : -42 ms
Stream size : 304 MiB (21%)
Title : Surround
Language : English
Service kind : Complete Main
Default : Yes
Forced : No

Text
ID : 3
Format : UTF-8
Codec ID : S_TEXT/UTF8
Codec ID/Info : UTF-8 Plain Text
Duration : 1 h 29 min
Bit rate : 17 b/s
Count of elements : 475
Stream size : 11.5 KiB (0%)
Language : Czech

Odkaz na stiahnutie:
Pre zobrazenie odkazov sa musíte alebo

Späť na Movie - Zahraničné filmy

Kto je on-line

Užívatelia prezerajúci fórum: Žiadny registrovaný užívateľ nie je prítomný a 2 hostia