The Dawnseeker (2018)

Novinky 2016, premiéry, filmy bez dabingu a ostatné zahraničné filmy. DVD-rip, BluRay-rip, AVI, DivX a pod.
Luky753
Prispievateľ
Prispievateľ
 
Príspevky: 72
Registrovaný: Ned Nov 13, 2016 3:22 pm
Poďakoval: 0 krát
Poďakovali mi: 6 krát

The Dawnseeker (2018)

Poslaťod Luky753 » Pon Okt 22, 2018 8:47 am

Obrázok

The Dawnseeker (2018)


Odkaz na stiahnutie:
Pre zobrazenie odkazov sa musíte alebo


Sci-Fi

USA, 2018

Režie: Justin Price
Scénář: Justin Price
Kamera: Khu
Hudba: Julian Beeston
Hrají: Khu, Thomas Rivas, Jordan Matlock
Producenti: Justin Price, Khu, Lisa May, Deanna Grace Congo
Střih: Justin Price

Sada v roku 2245, keď slnko Zeme vyhladzuje celé ľudstvo, "The Dawnseeker" sleduje päť najatých žoldnierov, ktorí cestujú na neoznačenú planétu a zbierajú zriedkavý minerál známy ako hviezdny prach, ktorý doplní umierajúcu hviezdu. Keď sa ich vesmírna loď zrúti na cudzineckej planéte, sú stíhané a prenasledované tvorom oveľa pokročilejším ako čokoľvek, čo sa s nimi stretlo.

Format : Matroska
Format version : Version 4
File size : 3.16 GiB
Duration : 1 h 22 min
Overall bit rate : 5 511 kb/s
Encoded date : UTC 2018-10-18 09:09:27

Video
Format : AVC
Format/Info : Advanced Video Codec
Format profile : High@L4
Format settings : CABAC / 4 Ref Frames
Format settings, CABAC : Yes
Format settings, ReFrames : 4 frames
Codec ID : V_MPEG4/ISO/AVC
Duration : 1 h 22 min
Bit rate : 5 125 kb/s
Width : 1 920 pixels
Height : 1 080 pixels
Display aspect ratio : 16:9

Frame rate mode : Constant
Frame rate : 24.000 FPS
Color space : YUV
Chroma subsampling : 4:2:0
Bit depth : 8 bits
Scan type : Progressive
Bits/(Pixel*Frame) : 0.103
Stream size : 2.94 GiB (93%)
Language : English

Audio
Format : AC-3
Format/Info : Audio Coding 3
Commercial name : Dolby Digital
Codec ID : A_AC3
Duration : 1 h 22 min
Bit rate mode : Constant
Bit rate : 384 kb/s
Channel(s) : 6 channels
Channel layout : L R C LFE Ls Rs
Sampling rate : 48.0 kHz
Frame rate : 31.250 FPS (1536 SPF)
Bit depth : 16 bits
Compression mode : Lossy
Delay relative to video : -42 ms
Stream size : 226 MiB (7%)
Language : English

TITULKY Language: CZ,ENG

Odkaz na stiahnutie:
Pre zobrazenie odkazov sa musíte alebo

Späť na Movie - Zahraničné filmy

Kto je on-line

Užívatelia prezerajúci fórum: Žiadny registrovaný užívateľ nie je prítomný a 0 hostia