The Night Comes for Us (2018)

Novinky 2016, premiéry, filmy bez dabingu a ostatné zahraničné filmy. DVD-rip, BluRay-rip, AVI, DivX a pod.
Luky753
Začiatočník
Začiatočník
 
Príspevky: 39
Registrovaný: Ned Nov 13, 2016 3:22 pm
Poďakoval: 0 krát
Poďakovali mi: 2 krát

The Night Comes for Us (2018)

Poslaťod Luky753 » Sob Nov 03, 2018 9:20 pm

Obrázok

The Night Comes for Us (2018)

Akční / Krimi / Thriller

Indonésie, 2018, 121 min

Režie: Timo Tjahjanto
Scénář: Timo Tjahjanto
Kamera: Gunnar Nimpuno
Hrají: Joe Taslim, Iko Uwais, Julie Estelle, Zack Lee, Shareefa Daanish, Abimana Aryasatya, Hannah Al Rashid, Dian Sastrowardoyo, Sunny Pang
Producenti: Wicky V. Olindo

Odkaz na stiahnutie:
Pre zobrazenie odkazov sa musíte alebo


Ito (Joe Taslim), ganglandský enforcer, bol chytený uprostred zradného a násilného povstania v jeho rodine zločinu triády po návrate domov zo zahraničia.

Format
: Matroska
Format version : Version 4
File size : 2.14 GiB
Duration : 2 h 0 min
Overall bit rate mode : Variable
Overall bit rate : 2 531 kb/s

Video
Format : AVC
Format/Info : Advanced Video Codec
Format profile : Main@L3.1
Format settings : CABAC / 3 Ref Frames
Format settings, CABAC : Yes
Format settings, ReFrames : 3 frames
Codec ID : V_MPEG4/ISO/AVC
Duration : 2 h 0 min
Bit rate mode : Variable
Bit rate : 2 150 kb/s
Maximum bit rate : 3 225 kb/s
Width : 1 280 pixels
Height : 720 pixels

Display aspect ratio : 16:9
Frame rate mode : Constant
Frame rate : 23.976 (24000/1001) FPS

Audio
ID : 2
Format : AC-3
Format/Info : Audio Coding 3
Commercial name : Dolby Digital
Codec ID : A_AC3
Duration : 2 h 0 min
Bit rate mode : Constant
Bit rate : 384 kb/s
Channel(s) : 6 channels
Channel layout : L R C LFE Ls Rs
Sampling rate : 48.0 kHz
Frame rate : 31.250 FPS (1536 SPF)
Bit depth : 16 bits
Compression mode : Lossy
Stream size : 332 MiB (15%)
Service kind : Complete Main
Default : Yes
Forced : No
Encoded date : UTC 2018-10-10 00:00:57

Text #1
ID : 3
Format : UTF-8
Codec ID : S_TEXT/UTF8
Codec ID/Info : UTF-8 Plain Text
Duration : 1 h 48 min
Bit rate : 16 b/s
Count of elements : 448
Stream size : 12.9 KiB (0%)
Title : English
Language :CZECH

Odkaz na stiahnutie:
Pre zobrazenie odkazov sa musíte alebo

Späť na Movie - Zahraničné filmy

Kto je on-line

Užívatelia prezerajúci fórum: Žiadny registrovaný užívateľ nie je prítomný a 2 hostia