The Seagull (2018)

Novinky 2016, premiéry, filmy bez dabingu a ostatné zahraničné filmy. DVD-rip, BluRay-rip, AVI, DivX a pod.
Luky753
Začiatočník
Začiatočník
 
Príspevky: 32
Registrovaný: Ned Nov 13, 2016 3:22 pm
Poďakoval: 0 krát
Poďakovali mi: 0 krát

The Seagull (2018)

Poslaťod Luky753 » Uto Nov 06, 2018 9:54 pm

Obrázok

The Seagull (2018)

Drama

USA, 2018, 98 min

Režie: Michael Mayer
Scénář: Anton Pavlovič Čechov (divadelní hra), Stephen Karam
Kamera: Matthew J. Lloyd
Hudba: Anton Sanko, Nico Muhly
Hrají: Elisabeth Moss, Saoirse Ronan, Corey Stoll, Brian Dennehy, Annette Bening, Mare Winningham, Michael Zegen, Glenn Fleshler, Jon Tenney, Billy Howle
Producenti: Robert Salerno, Tom Hulce
Střih: Annette Davey
Scénografie: Jane Musky
Kostýmy: Ann Roth

Jedno leto na ruskom vidieku sa rodina a priatelia stretávajú na víkend v dome pri jazere. Zatiaľ čo je každý vášnivo zamilovaný do niekoho, kto je zamilovaný do niekoho iného, odvíja sa tragikomédia o umení, sláve, ľudskej hlúposti a večnej túžbe žiť zmysluplný život.

Odkaz na stiahnutie:
Pre zobrazenie odkazov sa musíte alebo


Format : Matroska
Format version : Version 4
File size : 1.37 GiB
Duration : 1 h 38 min
Overall bit rate : 1 983 kb/s

Video
Format : MPEG-4 Visual
Format profile : Simple@L3
Format settings, BVOP : No
Format settings, QPel : No
Format settings, GMC : No warppoints
Format settings, Matrix : Default (H.263)
Codec ID : V_MS/VFW/FOURCC / XVID
Codec ID/Hint : XviD
Duration : 1 h 38 min
Bit rate : 1 533 kb/s
Width : 720 pixels
Height : 304 pixels

Display aspect ratio : 2.35:1
Frame rate mode : Constant
Frame rate : 23.976 (24000/1001) FPS

Audio
Format : AC-3
Format/Info : Audio Coding 3
Commercial name : Dolby Digital
Codec ID : A_AC3
Duration : 1 h 38 min
Bit rate mode : Constant
Bit rate : 448 kb/s
Channel(s) : 6 channels
Channel layout : L R C LFE Ls Rs
Sampling rate : 48.0 kHz
Frame rate : 31.250 FPS (1536 SPF)
Bit depth : 16 bits
Compression mode : Lossy
Stream size : 316 MiB (23%)
Service kind : Complete Main
Default : Yes
Forced : No

Text #1
ID : 3
Format : UTF-8
Codec ID : S_TEXT/UTF8
Codec ID/Info : UTF-8 Plain Text
Duration : 1 h 38 min
Bit rate : 52 b/s
Count of elements : 1348
Stream size : 38.0 KiB (0%)
Language : Czech
Default : Yes
Forced : No

Text #2
ID : 4
Format : UTF-8
Codec ID : S_TEXT/UTF8
Codec ID/Info : UTF-8 Plain Text
Duration : 1 h 38 min
Bit rate : 57 b/s
Count of elements : 1348
Stream size : 41.0 KiB (0%)
Language : Slovak

Odkaz na stiahnutie:
Pre zobrazenie odkazov sa musíte alebo

Späť na Movie - Zahraničné filmy

Kto je on-line

Užívatelia prezerajúci fórum: Žiadny registrovaný užívateľ nie je prítomný a 2 hostia