Válka o planetu opic / War for the Planet of the Apes (2017)

Filmy v HD formáte, dabované zahraničné filmy, slovenská a česká produkcia
Obrázok užívateľa
NYDJ
Power User
Power User
 
Príspevky: 641
Registrovaný: Str Sep 18, 2013 4:09 pm
Poďakoval: 9 krát
Poďakovali mi: 443 krát

Válka o planetu opic / War for the Planet of the Apes (2017)

Poslaťod NYDJ » Str Okt 18, 2017 5:19 am

Válka o planetu opic / War for the Planet of the Apes (2017)

Obrázok

CSFD
Odkaz na stiahnutie:
Pre zobrazenie odkazov sa musíte alebo

Akční / Dobrodružný / Drama / Sci-Fi
USA, 2017, 143 min
Jazyk:Cz 5.1/En-DTS
Titulky:Cz-Forced/Cz/En

Mediainfo
Odkaz na stiahnutie:
Pre zobrazenie odkazov sa musíte alebo

Download
Odkaz na stiahnutie:
Pre zobrazenie odkazov sa musíte alebo

Odkaz na stiahnutie:
Pre zobrazenie odkazov sa musíte alebo


--------------------------------------------------------------

Jazyk:Cz 5.1/En-DTS
Titulky:Cz-Forced/Cz/En

Mediainfo
Odkaz na stiahnutie:
Pre zobrazenie odkazov sa musíte alebo

Download
Odkaz na stiahnutie:
Pre zobrazenie odkazov sa musíte alebo

Odkaz na stiahnutie:
Pre zobrazenie odkazov sa musíte alebo
Naposledy upravil NYDJ dňa Pia Okt 20, 2017 3:10 pm, celkovo upravené 2

vratkodemarko
Excellent User
Excellent User
 
Príspevky: 983
Registrovaný: Pia Feb 17, 2012 3:03 pm
Poďakoval: 3 krát
Poďakovali mi: 114 krát

Re: Válka o planetu opic / War for the Planet of the Apes (2

Poslaťod vratkodemarko » Str Okt 18, 2017 8:37 pm

Obrázok


Obrázok
Odkaz na stiahnutie:
Pre zobrazenie odkazov sa musíte alebo


Obrázok
W:\War.for.the.Planet.of.the.Apes.2017.720p.BluRay.DD5.1.x264.CZ-AZECON\War.for.the.Planet.of.the.Apes.2017.720p.BluRay.DD5.1.x264.CZ-AZECON.mkv
General
Unique ID : 187132647385834323748046903034949459193 (0x8CC86FD9CFA42B3EA8709E43F71CDCF9)
Complete name : W:\War.for.the.Planet.of.the.Apes.2017.720p.BluRay.DD5.1.x264.CZ-AZECON\War.for.the.Planet.of.the.Apes.2017.720p.BluRay.DD5.1.x264.CZ-AZECON.mkv
Format : Matroska
Format version : Version 2
File size : 6.65 GiB
Duration : 2 h 20 min
Overall bit rate : 6 790 kb/s
Encoded date : UTC 2017-10-17 15:16:34
Writing application : mkvmerge v15.0.0 ('Duel with the Devil') 64-bit
Writing library : libebml v1.3.5 + libmatroska v1.4.5
Video #1
ID : 1
Format : AVC
Format/Info : Advanced Video Codec
Format profile : High@L4.1
Format settings, CABAC : Yes
Format settings, ReFrames : 12 frames
Codec ID : V_MPEG4/ISO/AVC
Duration : 2 h 20 min
Bit rate : 5 699 kb/s
Width : 1 280 pixels
Height : 534 pixels
Display aspect ratio : 2.40:1
Frame rate mode : Constant
Frame rate : 23.976 (24000/1001) FPS
Color space : YUV
Chroma subsampling : 4:2:0
Bit depth : 8 bits
Scan type : Progressive
Bits/(Pixel*Frame) : 0.348
Stream size : 5.58 GiB (84%)
Title : AZECON-HyperX
Writing library : x264 core 152 r2851kMod ba24899
Encoding settings : cabac=1 / ref=12 / deblock=1:-3:-3 / analyse=0x3:0x133 / me=umh / subme=11 / psy=1 / fade_compensate=0.00 / psy_rd=1.05:0.00 / mixed_ref=1 / me_range=32 / chroma_me=1 / trellis=2 / 8x8dct=1 / cqm=0 / deadzone=21,11 / fast_pskip=0 / chroma_qp_offset=-2 / threads=12 / lookahead_threads=2 / sliced_threads=0 / nr=0 / decimate=0 / interlaced=0 / bluray_compat=0 / constrained_intra=0 / bframes=9 / b_pyramid=2 / b_adapt=2 / b_bias=0 / direct=3 / weightb=1 / open_gop=0 / weightp=2 / keyint=250 / keyint_min=23 / scenecut=40 / intra_refresh=0 / rc=crf / mbtree=0 / crf=15.0000 / qcomp=0.60 / qpmin=0 / qpmax=69 / qpstep=4 / ip_ratio=1.30 / pb_ratio=1.20 / aq=3:0.80
Language : English
Default : Yes
Forced : No
Audio #2
ID : 2
Format : AC-3
Format/Info : Audio Coding 3
Mode extension : CM (complete main)
Format settings, Endianness : Big
Codec ID : A_AC3
Duration : 2 h 20 min
Bit rate mode : Constant
Bit rate : 448 kb/s
Channel(s) : 6 channels
Channel positions : Front: L C R, Side: L R, LFE
Sampling rate : 48.0 kHz
Frame rate : 31.250 FPS (1536 spf)
Compression mode : Lossy
Stream size : 449 MiB (7%)
Language : Czech
Default : Yes
Forced : No
Audio #3
ID : 3
Format : AC-3
Format/Info : Audio Coding 3
Mode extension : CM (complete main)
Format settings, Endianness : Big
Codec ID : A_AC3
Duration : 2 h 20 min
Bit rate mode : Constant
Bit rate : 640 kb/s
Channel(s) : 6 channels
Channel positions : Front: L C R, Side: L R, LFE
Sampling rate : 48.0 kHz
Frame rate : 31.250 FPS (1536 spf)
Compression mode : Lossy
Stream size : 642 MiB (9%)
Language : English
Default : No
Forced : No
Text #4
ID : 4
Format : UTF-8
Codec ID : S_TEXT/UTF8
Codec ID/Info : UTF-8 Plain Text
Duration : 2 h 10 min
Bit rate : 3 b/s
Count of elements : 195
Stream size : 3.81 KiB (0%)
Title : forced SRT
Language : Czech
Default : Yes
Forced : Yes
Text #5
ID : 5
Format : UTF-8
Codec ID : S_TEXT/UTF8
Codec ID/Info : UTF-8 Plain Text
Duration : 2 h 18 min
Bit rate : 15 b/s
Count of elements : 774
Stream size : 15.4 KiB (0%)
Title : SRT
Language : Czech
Default : No
Forced : No
Text #6
ID : 6
Format : ASS
Codec ID : S_TEXT/ASS
Codec ID/Info : Advanced Sub Station Alpha
Duration : 2 h 10 min
Bit rate : 8 b/s
Count of elements : 195
Compression mode : Lossless
Stream size : 7.90 KiB (0%)
Title : forced ASS
Language : Czech
Default : No
Forced : Yes
Text #7
ID : 7
Format : ASS
Codec ID : S_TEXT/ASS
Codec ID/Info : Advanced Sub Station Alpha
Duration : 2 h 18 min
Bit rate : 31 b/s
Count of elements : 774
Compression mode : Lossless
Stream size : 31.9 KiB (0%)
Title : ASS
Language : Czech
Default : No
Forced : No
Jazyk : CZ Dabing



Obrázok
Obrázok
Odkaz na stiahnutie:
Pre zobrazenie odkazov sa musíte alebo

vratkodemarko
Excellent User
Excellent User
 
Príspevky: 983
Registrovaný: Pia Feb 17, 2012 3:03 pm
Poďakoval: 3 krát
Poďakovali mi: 114 krát

Re: Válka o planetu opic / War for the Planet of the Apes (2

Poslaťod vratkodemarko » Sob Okt 21, 2017 11:01 pm

Obrázok


Obrázok
Odkaz na stiahnutie:
Pre zobrazenie odkazov sa musíte alebo


Obrázok
Hlavní
UniqueID/String: 240855955348182255820571658748440637911 (0xB5332B6F6BE214968EEFFA25DD3C71D7)
Celý název a cesta: H:\Videos2\War_for_the_Planet_of_the_Apes.2017.BDrip.1080p.DualAudio.mkv
Formát: Matroska
Format_Version: Version 4 / Version 2
Velikost souboru: 16,1 GiB
Duration/String: 2 h 20 min
Celkový BitRate: 16,4 Mb/s
Encoded date: UTC 2017-10-17 18:14:23
Použitý software: mkvmerge v15.0.0 ( 'Duel with the Devil' ) 64-bit
Enkódoval: libebml v1.3.5 + libmatroska v1.4.5

Video
ID: 1
Formát: AVC
Formát/: Advanced Video Codec
Format_Profile: High@L4.1
Format_Settings_CABAC/String: Ano
Format_Settings_RefFrames/String: 5 frame
CodecID: V_MPEG4/ISO/AVC
Duration/String: 2 h 20 min
Bit rate: 14,5 Mb/s
Šířka: 1 920pixely
Výška: 800pixely
Poměr stran: 2,40:1
Frame rate: 23,976 (24000/1001) FPS
ColorSpace: YUV
ChromaSubsampling/String: 4:2:0
BitDepth/String: 8 bits
ScanType/String: Progressive
Bits/(Pixel*Frame): 0.394
StreamSize/String: 14,2 GiB (88%)
Enkódoval: x264 core 148 r2665kMod a01e339
Nastavení enkoderu: cabac=1 / ref=5 / deblock=1:-3:-3 / analyse=0x3:0x133 / me=umh / subme=11 / psy=1 / fade_compensate=0.00 / psy_rd=0.85:0.00 / mixed_ref=1 / me_range=48 / chroma_me=1 / trellis=2 / 8x8dct=1 / cqm=0 / deadzone=21,11 / fast_pskip=0 / chroma_qp_offset=-2 / threads=24 / lookahead_threads=4 / sliced_threads=0 / nr=0 / decimate=0 / interlaced=0 / bluray_compat=0 / constrained_intra=0 / fgo=0 / bframes=8 / b_pyramid=2 / b_adapt=2 / b_bias=0 / direct=3 / weightb=1 / open_gop=0 / weightp=2 / keyint=240 / keyint_min=24 / scenecut=40 / intra_refresh=0 / rc=2pass / mbtree=0 / bitrate=14500 / ratetol=1.0 / qcomp=0.70 / qpmin=0 / qpmax=69 / qpstep=4 / cplxblur=20.0 / qblur=0.5 / ip_ratio=1.20 / pb_ratio=1.20 / aq=3:0.80
Default: Ano
Forced: Ne

Audio #1
ID: 2
Formát: AC-3
Formát/: Audio Coding 3
Format_Settings_Endianness: Big
CodecID: A_AC3
Duration/String: 2 h 20 min
Bit rate: 448 kb/s
Kanál(y): 6 kanály
Channel positions: Front: L C R, Side: L R, LFE
Sampling rate: 48,0 kHz
Frame rate: 31,250 FPS (1536 spf)
BitDepth/String: 16 bits
StreamSize/String: 449 MiB (3%)
Jazyk: Czech
ServiceKind/String: Complete Main
Default: Ano
Forced: Ne

Audio #2
ID: 3
Formát: DTS
Formát/: Digital Theater Systems
Format_Profile: ES Matrix / Core
Format_Settings_Mode: 16
Format_Settings_Endianness: Big
CodecID: A_DTS
Duration/String: 2 h 20 min
Bit rate: 1 509 kb/s
Kanál(y): 7 kanály / 6 kanály
Channel positions: Front: L C R, Side: L R, Back: C, LFE / Front: L C R, Side: L R, LFE
Sampling rate: 48,0 kHz
Frame rate: 93,750 FPS (512 spf)
BitDepth/String: 24 bits
StreamSize/String: 1,48 GiB (9%)
Jazyk: English
Default: Ne
Forced: Ne

Text #1
ID: 4
Formát: VobSub
MuxingMode: zlib
CodecID: S_VOBSUB
/: Picture based subtitle format used on DVDs
Duration/String: 2 h 10 min
Bit rate: 622 b/s
ElementCount: 195
StreamSize/String: 595 KiB (0%)
Titul: forced
Jazyk: Czech
Default: Ano
Forced: Ne

Text #2
ID: 5
Formát: VobSub
MuxingMode: zlib
CodecID: S_VOBSUB
/: Picture based subtitle format used on DVDs
Duration/String: 2 h 18 min
Bit rate: 2 328 b/s
ElementCount: 773
StreamSize/String: 2,31 MiB (0%)
Jazyk: Czech
Default: Ne
Forced: Ne

Text #3
ID: 6
Formát: VobSub
MuxingMode: zlib
CodecID: S_VOBSUB
/: Picture based subtitle format used on DVDs
Duration/String: 2 h 18 min
Bit rate: 2 429 b/s
ElementCount: 778
StreamSize/String: 2,41 MiB (0%)
Jazyk: Slovak
Default: Ne
Forced: Ne

Text #4
ID: 7
Formát: VobSub
MuxingMode: zlib
CodecID: S_VOBSUB
/: Picture based subtitle format used on DVDs
Duration/String: 1 h 42 min
Bit rate: 722 b/s
ElementCount: 192
StreamSize/String: 541 KiB (0%)
Titul: forced
Jazyk: English
Default: Ne
Forced: Ne

Text #5
ID: 8
Formát: VobSub
MuxingMode: zlib
CodecID: S_VOBSUB
/: Picture based subtitle format used on DVDs
Duration/String: 2 h 8 min
Bit rate: 2 547 b/s
ElementCount: 749
StreamSize/String: 2,35 MiB (0%)
Jazyk: English
Default: Ne
Forced: Ne

Menu
00:00:00.000 : en:Chapter 1
00:05:05.888 : en:Chapter 2
00:09:06.712 : en:Chapter 3
00:12:14.108 : en:Chapter 4
00:18:21.016 : en:Chapter 5
00:25:04.503 : en:Chapter 6
00:30:17.398 : en:Chapter 7
00:34:13.092 : en:Chapter 8
00:37:46.347 : en:Chapter 9
00:42:54.446 : en:Chapter 10
00:49:31.802 : en:Chapter 11
00:54:14.626 : en:Chapter 12
00:58:49.817 : en:Chapter 13
01:05:24.128 : en:Chapter 14
01:10:18.380 : en:Chapter 15
01:14:53.822 : en:Chapter 16
01:18:59.192 : en:Chapter 17
01:25:35.672 : en:Chapter 18
01:29:37.372 : en:Chapter 19
01:34:22.823 : en:Chapter 20
01:39:27.711 : en:Chapter 21
01:43:48.222 : en:Chapter 22
01:48:45.393 : en:Chapter 23
01:55:20.580 : en:Chapter 24
01:58:04.702 : en:Chapter 25
02:02:33.929 : en:Chapter 26
02:05:54.797 : en:Chapter 27
02:12:51.213 : en:Chapter 28

Jazyk : CZ Dabing



Obrázok
Obrázok
Odkaz na stiahnutie:
Pre zobrazenie odkazov sa musíte alebo


3D

Obrázok
General
Complete name: E:\Filmy\3D\Válka o planetu opic\Válka o planetu opic.mkv
Format: Matroska
Format version: Version 4 / Version 2
File size: 21.2 GiB
Duration: 2 h 20 min
Overall bit rate: 21.7 Mb/s
Movie name: Válka o planetu opic
Encoded date: UTC 2017-10-19 10:22:48
Writing application: mkvmerge v7.3.0 ('Nouages' 32bit built on Oct 22 2014 18:44:01
Writing library: libebml v1.3.0 + libmatroska v1.4.1

Video
ID: 1
Format: AVC
Format/Info: Advanced Video Codec
Format profile: High@L4.1
Format settings, CABAC: Yes
Format settings, ReFrames: 2 frames
Codec ID: V_MPEG4/ISO/AVC
Duration: 2 h 20 min
Bit rate: 20.7 Mb/s
Width: 1 920 pixels
Height: 1 080 pixels
Display aspect ratio: 16:9
Frame rate mode: Constant
Frame rate: 23.976 (24000/1001) FPS
Color space: YUV
Chroma subsampling: 4:2:0
Bit depth: 8 bits
Scan type: Progressive
Bits/(Pixel*Frame): 0.417
Stream size: 20.3 GiB (96%)
Writing library: x264 core 142
Encoding settings: cabac=1 / ref=1 / deblock=1:-1:-1 / analyse=0x3:0 / me=hex / subme=5 / psy=0 / mixed_ref=0 / me_range=16 / chroma_me=1 / trellis=0 / 8x8dct=1 / cqm=0 / deadzone=21,11 / fast_pskip=1 / chroma_qp_offset=0 / threads=4 / lookahead_threads=1 / sliced_threads=0 / nr=0 / decimate=1 / interlaced=0 / bluray_compat=0 / constrained_intra=0 / bframes=2 / b_pyramid=0 / b_adapt=1 / b_bias=0 / direct=1 / weightb=1 / open_gop=0 / weightp=0 / keyint=24 / keyint_min=13 / scenecut=40 / intra_refresh=0 / rc=abr / mbtree=0 / bitrate=20732 / ratetol=1.0 / qcomp=0.60 / qpmin=0 / qpmax=69 / qpstep=4 / ip_ratio=1.40 / pb_ratio=1.30 / aq=1:1.00
Default: Yes
Forced: No
Color range: Limited
Color primaries: BT.709
Transfer characteristics: BT.709
Matrix coefficients: BT.709

Audio #1
ID: 2
Format: AC-3
Format/Info: Audio Coding 3
Mode extension: CM (complete main)
Format settings, Endianness: Big
Codec ID: A_AC3
Duration: 2 h 20 min
Bit rate mode: Constant
Bit rate: 448 kb/s
Channel(s): 6 channels
Channel positions: Front: L C R, Side: L R, LFE
Sampling rate: 48.0 kHz
Frame rate: 31.250 FPS (1536 spf)
Bit depth: 16 bits
Compression mode: Lossy
Stream size: 449 MiB (2%)
Language: Czech
Default: Yes
Forced: No

Audio #2
ID: 3
Format: AC-3
Format/Info: Audio Coding 3
Mode extension: CM (complete main)
Format settings, Endianness: Big
Codec ID: A_AC3
Duration: 2 h 20 min
Bit rate mode: Constant
Bit rate: 448 kb/s
Channel(s): 6 channels
Channel positions: Front: L C R, Side: L R, LFE
Sampling rate: 48.0 kHz
Frame rate: 31.250 FPS (1536 spf)
Bit depth: 16 bits
Compression mode: Lossy
Stream size: 449 MiB (2%)
Language: English
Default: No
Forced: No

Text #1
ID: 4
Format: PGS
Muxing mode: zlib
Codec ID: S_HDMV/PGS
Codec ID/Info: Picture based subtitle format used on BDs/HD-DVDs
Duration: 2 h 8 min
Bit rate: 1 924 b/s
Count of elements: 1172
Stream size: 1.78 MiB (0%)
Language: English
Default: No
Forced: No

Text #2
ID: 5
Format: PGS
Muxing mode: zlib
Codec ID: S_HDMV/PGS
Codec ID/Info: Picture based subtitle format used on BDs/HD-DVDs
Duration: 2 h 18 min
Bit rate: 1 865 b/s
Count of elements: 1204
Stream size: 1.85 MiB (0%)
Language: Czech
Default: No
Forced: No

Menu
00:00:00.000 : en01)00:00:00:000
00:05:05.888 : en02)00:05:05:888
00:09:06.712 : en03)00:09:06:712
00:12:14.108 : en04)00:12:14:108
00:18:21.016 : en05)00:18:21:016
00:25:04.503 : en06)00:25:04:503
00:30:17.398 : en07)00:30:17:398
00:34:13.092 : en08)00:34:13:092
00:37:46.347 : en09)00:37:46:347
00:42:54.446 : en10)00:42:54:446
00:49:31.802 : en11)00:49:31:802
00:54:14.626 : en12)00:54:14:626
00:58:49.817 : en13)00:58:49:817
01:05:24.128 : en14)01:05:24:128
01:10:18.380 : en15)01:10:18:380
01:14:53.822 : en16)01:14:53:822
01:18:59.192 : en17)01:18:59:192
01:25:35.672 : en18)01:25:35:672
01:29:37.372 : en19)01:29:37:372
01:34:22.823 : en20)01:34:22:823
01:39:27.711 : en21)01:39:27:711
01:43:48.222 : en22)01:43:48:222
01:48:45.393 : en23)01:48:45:393
01:55:20.580 : en24)01:55:20:580
01:58:04.702 : en25)01:58:04:702
02:02:33.929 : en26)02:02:33:929
02:05:54.797 : en27)02:05:54:797
02:12:51.213 : en28)02:12:51:213
Jazyk : CZ Dabing



Obrázok
Obrázok
Odkaz na stiahnutie:
Pre zobrazenie odkazov sa musíte alebo

rybar
Gold User
Gold User
 
Príspevky: 1353
Registrovaný: Str Okt 29, 2008 11:04 pm
Poďakoval: 65 krát
Poďakovali mi: 1095 krát

Re: Válka o planetu opic / War for the Planet of the Apes (2

Poslaťod rybar » Ned Okt 22, 2017 3:38 pm

Válka o planetu opic / War for the Planet of the Apes (2017)

CSFD:

Odkaz na stiahnutie:
Pre zobrazenie odkazov sa musíte alebo


Obrázok


War.For.The.Planet.Of.The.Apes.2017.720p.BluRay.x264.DD5.1.CZ
War.For.The.Planet.Of.The.Apes.2017.1080p.BluRay.x264.DD5.1.CZ
War.For.The.Planet.Of.The.Apes.2017.1080p.BluRay.x264.DD5.1.CZ


War.For.The.Planet.Of.The.Apes.2017.720p.BluRay.x264.DD5.1.CZ
Jazyk: Czech 5,1 448 Kbps , English 5.1 640 Kbps
Subtitles: Czech forced , Czech , English

iNFO

Odkaz na stiahnutie:
Pre zobrazenie odkazov sa musíte alebo


Obrázok
Odkaz na stiahnutie:
Pre zobrazenie odkazov sa musíte alebo

Přidán záznam na opravu dat 5%.
War.For.The.Planet.Of.The.Apes.2017.1080p.BluRay.x264.DD5.1.CZ
Jazyk: Czech 5.1 448 Kbps , English 5.1 640 Kbps
Subtitles: Cxech forced , Czech , English
iNFO

Odkaz na stiahnutie:
Pre zobrazenie odkazov sa musíte alebo


Obrázok
Odkaz na stiahnutie:
Pre zobrazenie odkazov sa musíte alebo

Přidán záznam na opravu dat 5%.
War.For.The.Planet.Of.The.Apes.2017.1080p.BluRay.x264.DD5.1.CZ
Jazyk: Czech 5.1 448 Kbps , English 5.1 640 Kbps
Subtitles: Czech forced , Czech , English
iNFO

Odkaz na stiahnutie:
Pre zobrazenie odkazov sa musíte alebo


Obrázok
Odkaz na stiahnutie:
Pre zobrazenie odkazov sa musíte alebo

Přidán záznam na opravu dat 5%.

rybar
Gold User
Gold User
 
Príspevky: 1353
Registrovaný: Str Okt 29, 2008 11:04 pm
Poďakoval: 65 krát
Poďakovali mi: 1095 krát

Re: Válka o planetu opic / War for the Planet of the Apes (2

Poslaťod rybar » Ned Nov 26, 2017 9:43 am

Válka o planetu opic / War for the Planet of the Apes (2017)

CSFD:

Odkaz na stiahnutie:
Pre zobrazenie odkazov sa musíte alebo


Obrázok


War.For.The.Planet.Of.The.Apes.2017.1080p.BluRay.REMUX.AVC.DD5.1.CZ

War.For.The.Planet.Of.The.Apes.2017.1080p.BluRay.REMUX.AVC.DD5.1.CZ
Jazyk: Czech 5.1 448 Kbps , English 5.1 640 Kbps
Subtitles: Czech forced , Czech , English
iNFO

Odkaz na stiahnutie:
Pre zobrazenie odkazov sa musíte alebo


Obrázok
Odkaz na stiahnutie:
Pre zobrazenie odkazov sa musíte alebo

Přidán záznam na opravu dat 5%.

Obrázok užívateľa
odyseus
Power User
Power User
 
Príspevky: 545
Registrovaný: Ned Apr 13, 2008 10:45 am
Poďakoval: 10 krát
Poďakovali mi: 148 krát

Re: Válka o planetu opic / War for the Planet of the Apes (2

Poslaťod odyseus » Pia Aug 09, 2019 12:44 pm

Info:
Odkaz na stiahnutie:
Pre zobrazenie odkazov sa musíte alebo

Obrázok

Odkaz na stiahnutie:
Pre zobrazenie odkazov sa musíte alebo

Odkaz na stiahnutie:
Pre zobrazenie odkazov sa musíte alebo

Obrázok
Obrázok
Odkaz na stiahnutie:
Pre zobrazenie odkazov sa musíte alebo


Späť na HD Movie - SK/CZ Filmy

Kto je on-line

Užívatelia prezerajúci fórum: Žiadny registrovaný užívateľ nie je prítomný a 5 hostia